烧客HIFI论坛-发烧直到底,来者都是客!

 找回密码
 快速注册

QQ登录

只需一步,快速开始

查看: 304|回复: 57

[WAV音轨] 【潘美辰 用心专辑 HDCD】中国唱片 好歌云集 叫好不绝于耳[WAV+CUE/BD]

[复制链接]
发表于 2021-2-23 09:22:52 | 显示全部楼层 |阅读模式

马上注册,结交更多烧友,大家一起分享交流,快心快哉。

您需要 登录 才可以下载或查看,没有帐号?快速注册

x
IMG_0001_副本.jpg
IMG_副本.jpg
IMG_0002_副本.jpg

专辑名称:潘美辰·用心专辑 HDCD
专辑艺人:潘美辰
版权提供:CNPIEC 中国唱片公司
出版发行:CNPIEC 中国唱片公司
条 形 码:4036893186930
发行日期:2000年
资源格式:WAV+CUE


专辑介绍:
潘美辰-用心专辑HDCD
用心专辑 好歌云集 叫好不绝于耳
16首好歌制作挂帅 口碑惊动人心


专辑曲目:
01.我曾用心爱着你

02.我想有个家
03.是你
04.写不完的爱
05.不要走 不要走
06.一切全是我的错
07.我不在乎(自弹自唱)
08.悔
09.舍不得你离去
10.只要一丝温柔
11.请你试着了解我
12.不懂爱的人
13.你冷不冷
14.拒绝融化的冰
15.沧海桑田
16.心痛的伤口


  1. EAC 抓取日志文件从11. 一月 2021, 12:15
  2. 潘美辰 / 潘美辰用心专辑
  3. 使用驱动器  :ASUS    DRW-24B1ST   Adapter: 1  ID: 1
  4. 读取模式     : 保护
  5. 使用精确流   : 是
  6. 废除音频缓冲 : 否
  7. 使用 C2 指针 : 否
  8. 读取偏移校正                   : 6
  9. 读取 Lead-In 和 Lead-Out       : 否
  10. 用静音填充抓取中丢失偏移的采样 : 是
  11. 去除首尾静音块                 : 否
  12. 在 CRC 计算中使用了空样本      : 否
  13. 已用接口                       : Win NT 及 2000 本地 Win32 接口
  14. 所用输出格式 : 内部 WAV 函数
  15. 样本格式     : 44.100 Hz;16 Bit;立体声
  16. 被抓轨 CD 的 TOC


  17.      音轨 |   开始   |   长度   | 起始扇区 | 结尾扇区
  18.     --------------------------------------------------
  19.        1  |  0:00.00 |  4:35.65 |       0  |   20689  
  20.        2  |  4:35.65 |  5:16.64 |   20690  |   44453  
  21.        3  |  9:52.54 |  4:13.00 |   44454  |   63428  
  22.        4  | 14:05.54 |  4:01.00 |   63429  |   81503  
  23.        5  | 18:06.54 |  3:25.42 |   81504  |   96920  
  24.        6  | 21:32.21 |  4:02.50 |   96921  |  115120  
  25.        7  | 25:34.71 |  3:17.25 |  115121  |  129920  
  26.        8  | 28:52.21 |  4:25.38 |  129921  |  149833  
  27.        9  | 33:17.59 |  3:54.13 |  149834  |  167396  
  28.       10  | 37:11.72 |  4:07.62 |  167397  |  185983  
  29.       11  | 41:19.59 |  4:12.38 |  185984  |  204921  
  30.       12  | 45:32.22 |  4:33.44 |  204922  |  225440  
  31.       13  | 50:05.66 |  5:52.22 |  225441  |  251862  
  32.       14  | 55:58.13 |  5:00.42 |  251863  |  274404  
  33.       15  | 60:58.55 |  4:47.57 |  274405  |  295986  
  34. 范围状态及错误
  35. 已选择范围
  36.      文件名 E:\潘美辰 - 潘美辰用心专辑.wav
  37.      峰值电平 100.0 %
  38.      范围质量 100.0 %
  39.      测试 CRC ADC20C4F
  40.      复制 CRC ADC20C4F
  41.      复制成功
  42. 没有错误发生

  43. 状态报告结尾
复制代码


友情提醒

百度分享链接

游客,如果您要查看本帖隐藏内容请 用心回复,勿要灌水、违规,如果您想免回复、免元宝下载请加入贵宾
发表于 2021-2-23 09:23:27 | 显示全部楼层
初心不改,发烧依旧!
回复 支持 反对

使用道具 举报

发表于 2021-2-23 16:21:32 | 显示全部楼层
谢谢分享,楼主辛苦!
回复 支持 反对

使用道具 举报

发表于 2021-2-23 16:23:56 | 显示全部楼层
论坛有你更精彩……
回复 支持 反对

使用道具 举报

发表于 2021-2-23 16:47:29 | 显示全部楼层
谢谢分享,楼主辛苦!
回复 支持 反对

使用道具 举报

发表于 2021-2-23 16:48:10 | 显示全部楼层
感谢分享,强烈支持楼主ing……
回复 支持 反对

使用道具 举报

发表于 2021-2-23 16:48:20 | 显示全部楼层
楼主辛苦了!
回复 支持 反对

使用道具 举报

发表于 2021-2-23 16:50:52 | 显示全部楼层
精彩内容,不容错过。
回复 支持 反对

使用道具 举报

发表于 2021-2-23 17:07:39 | 显示全部楼层
楼主加油,看好你哦。
回复 支持 反对

使用道具 举报

发表于 2021-2-23 17:23:24 | 显示全部楼层
楼主威武,衷心感谢!
回复 支持 反对

使用道具 举报

您需要登录后才可以回帖 登录 | 快速注册

本版积分规则