烧客HIFI论坛-发烧直到底,来者都是客!

 找回密码
 快速注册

QQ登录

只需一步,快速开始

查看: 3334|回复: 42

[WAV音轨] 【张学友 这个冬天不太冷(94年韩压01首版)】宝丽金唱片 追梦者原抓[WAV+CUE/BD]

[复制链接]
发表于 2017-2-27 19:42:36 | 显示全部楼层 |阅读模式

马上注册,结交更多烧友,大家一起分享交流,快心快哉。

您需要 登录 才可以下载或查看,没有帐号?快速注册

x
本帖最后由 追梦者 于 2017-7-21 13:54 编辑

psb.jpg
psb%20(2).jpg
psb%20(3).jpg
194224tjbysyaott4dy2yy.jpg
专辑名称:这个冬天不太冷
专辑歌手:张学友
发行时间:1994.12.20
发行地区: 香港
唱片风格:流行、怀旧
专辑语言:粤语
唱片公司:宝丽金
曲目数量:10
专辑版本:第三代韩压
内圈编号:527151-2 27480 <01>
资源格式:WAV+CUE+LOG+套图
资源出处;追梦者原抓




专辑介绍:

       《这个冬天不太冷》是香港歌手张学友的第十五张粤语专辑,唱片制作人欧丁玉,宝丽金唱片公司制作发行。这张唱片通常被认为是张学友在1990年代最为重要的粤语唱片之一。唱片中的主打歌曲《这个冬天不太冷》由张学友作曲,并在1995年囊括十大中文金曲奖等香港音乐奖项,预示著其在转型创作歌手方便取得成功。唱片中多首歌曲在香港大热,包括《我等到花儿也谢了》,《野猫之恋》,《情系半生》等。而张学友亦与监制区丁玉在选歌方便做出新的尝试,歌曲《幻想》邀请了美国的作曲家亲自谱曲,张学友自1994年后亦连续多年奔赴美国学习流行音乐以及音乐剧表演,为其后的《雪狼湖》等作品的成功打下坚实的基础。

专辑曲目:

01. 我等到花儿也谢了
02. Merry Christmas I Love U
03. 这个冬天不太冷
04. 望月
05. 幻想
06. 情系半生
07. 无止境的心痛
08. 野猫之恋
09. 怨偶
10. 让你愉快



  1. Exact Audio Copy V1.1 from 23. June 2015
  2. EAC 抓取日志文件从7. 十一月 2015, 4:04
  3. 张学友 / 这个冬天不太冷
  4. 使用驱动器  :TEAC    CD-W540E   Adapter: 0  ID: 0
  5. 读取模式      : 可靠Secure
  6. 使用精确流     : 是
  7. 清空音频缓存    : 是
  8. 使用 C2 指示器 : 否
  9. 读取偏移校正:               : 686
  10. 读取 Lead-In 和 Lead-Out : 否
  11. 用静音填充抓取中丢失偏移的采样       : 是
  12. 去除首尾静音块               : 否
  13. 在CRC 计算中使用了空样本       : 是
  14. 已用接口                  : 已安装外部 ASPI 接口
  15. 所用输出模式: : 内部 WAV 函数
  16. 样本格式    : 44.100 Hz; 16 Bit; 立体声
  17. 已抓取 CD 的 TOC
  18.      音轨 |    起始    |    长度    |  起始扇区  |  结束扇区  
  19.     --------------------------------------------
  20.       1 |  0:00.32 |  5:21.08 |     32 |  24114
  21.       2 |  5:21.40 |  4:24.07 |  24115 |  43921
  22.       3 |  9:45.47 |  5:17.60 |  43922 |  67756
  23.       4 | 15:03.32 |  4:45.70 |  67757 |  89201
  24.       5 | 19:49.27 |  3:53.68 |  89202 | 106744
  25.       6 | 23:43.20 |  4:29.12 | 106745 | 126931
  26.       7 | 28:12.32 |  5:18.70 | 126932 | 150851
  27.       8 | 33:31.27 |  3:53.58 | 150852 | 168384
  28.       9 | 37:25.10 |  4:54.72 | 168385 | 190506
  29.      10 | 42:20.07 |  4:41.23 | 190507 | 211604
  30. 范围状态及错误
  31. 已选择范围
  32.      文件名 D:\追梦者原抓\张学友-这个冬天不太冷(94港01首版)[追梦者原创]\张学友-这个冬天不太冷(94港01首版)[追梦者原创].wav
  33.      峰值电平 100.0 %
  34.      抓取速度 1.2 X
  35.      范围质量 100.0 %
  36.      复制 CRC 7F4BCD84
  37.      复制成功
  38. 没有错误发生

  39. AccurateRip 摘要

  40. 音轨  1  精确地校准抓取  23)  [FEA59966]  (AR v2)
  41. 音轨  2  精确地校准抓取  25)  [9AD1CEC2]  (AR v2)
  42. 音轨  3  精确地校准抓取  27)  [111DFEF2]  (AR v2)
  43. 音轨  4  精确地校准抓取  28)  [954E9E30]  (AR v2)
  44. 音轨  5  精确地校准抓取  25)  [CEFFB484]  (AR v2)
  45. 音轨  6  精确地校准抓取  26)  [7CE769AC]  (AR v2)
  46. 音轨  7  精确地校准抓取  25)  [3BA5CF54]  (AR v2)
  47. 音轨  8  精确地校准抓取  27)  [72E8C6EC]  (AR v2)
  48. 音轨  9  精确地校准抓取  26)  [F81FC652]  (AR v2)
  49. 音轨 10  精确地校准抓取  26)  [75CE4878]  (AR v2)

  50. 所有音轨精确校准抓取
  51. 状态报告结尾
  52. ---- CUETools DB Plugin V2.1.6
  53. [CTDB TOCID: 8nNWikSQOgMUO8YTOblQheBdiiM-] found
  54. Submit result: 8nNWikSQOgMUO8YTOblQheBdiiM- has been confirmed
  55. Track | CTDB Status
  56.   1   | (14/19) Accurately ripped
  57.   2   | (19/19) Accurately ripped
  58.   3   | (19/19) Accurately ripped
  59.   4   | (19/19) Accurately ripped
  60.   5   | (19/19) Accurately ripped
  61.   6   | (19/19) Accurately ripped
  62.   7   | (19/19) Accurately ripped
  63.   8   | (19/19) Accurately ripped
  64.   9   | (19/19) Accurately ripped
  65. 10   | (17/19) Accurately ripped
  66. ==== 记录校验日志 89EB3C18543C7FCBE041BA98DCA71DF9B01641CEEF9F10BFD3AD87F18DE99D38 ====
复制代码



音频链接:
游客,如果您要查看本帖隐藏内容请 用心回复,勿要灌水、违规,如果您想免回复、免元宝下载请加入贵宾
音频密码: 张学友-这个冬天不太冷(94港01首版)[追梦者原创]MM.rar (186 Bytes, 下载次数: 25, 售价: 1 个元宝)
发表于 2017-2-27 22:34:52 | 显示全部楼层
感谢楼主分享。
 楼主| 发表于 2017-2-27 22:36:49 | 显示全部楼层

谢谢这位朋友的支持!!!
发表于 2017-2-27 22:37:29 | 显示全部楼层
谢谢分享!!!!!
回复

使用道具 举报

发表于 2017-3-1 11:26:58 | 显示全部楼层
谢谢版主分享
发表于 2017-3-20 23:38:03 | 显示全部楼层
学友迷来支持
发表于 2017-5-4 20:03:27 | 显示全部楼层
xiexiefenxiang [email protected]@
发表于 2017-5-6 15:00:30 | 显示全部楼层
谢谢分享!!!!!
回复

使用道具 举报

发表于 2017-7-7 15:17:41 | 显示全部楼层
好好好好好好
发表于 2017-7-7 15:52:21 | 显示全部楼层
1111111111
您需要登录后才可以回帖 登录 | 快速注册

本版积分规则