烧客HIFI论坛-发烧直到底,来者都是客!

 找回密码
 快速注册

QQ登录

只需一步,快速开始

查看: 3176|回复: 43

[WAV音轨] 【张学友 偷心(94年香港A字首版)】宝丽金唱片[追梦者原创][WAV+CUE/BD]

[复制链接]
发表于 2017-2-27 20:41:54 | 显示全部楼层 |阅读模式

马上注册,结交更多烧友,大家一起分享交流,快心快哉。

您需要 登录 才可以下载或查看,没有帐号?快速注册

x
本帖最后由 追梦者 于 2017-7-21 14:26 编辑

psb.jpg
psb%20(1).jpg
psb.png
专辑名称:偷心
专辑歌手:张学友
发行时间:1994-08-01
发行地区:香港
唱片风格:流行、怀旧
专辑语言:国语
唱片公司:宝丽金唱片
曲目数量:10
内圈码:5237092/A
资源格式:WAV+CUE+LOG+高清套图
资源出处:追梦者原抓

专辑介绍:

      张学友1994年全新专辑,用最真的心唱最动人的歌曲!

专辑曲目:
01. 偷心
02. 别问
03. 你冷得像风
04. 我不在乎等多久
05. 多爱一分钟
06. 你知不知道
07. 心碎了无痕
08. 我希望你相信
09. 爱,一次给不完
10. 最怕

  1. Exact Audio Copy V1.1 from 23. June 2015
  2. EAC 抓取日志文件从14. 十一月 2015, 15:26
  3. 张学友 / 偷心
  4. 使用驱动器  :TEAC    CD-W540E   Adapter: 0  ID: 0
  5. 读取模式      : 可靠Secure
  6. 使用精确流     : 是
  7. 清空音频缓存    : 是
  8. 使用 C2 指示器 : 否
  9. 读取偏移校正:               : 686
  10. 读取 Lead-In 和 Lead-Out : 否
  11. 用静音填充抓取中丢失偏移的采样       : 是
  12. 去除首尾静音块               : 否
  13. 在CRC 计算中使用了空样本       : 是
  14. 已用接口                  : 已安装外部 ASPI 接口
  15. 所用输出模式: : 内部 WAV 函数
  16. 样本格式    : 44.100 Hz; 16 Bit; 立体声
  17. 已抓取 CD 的 TOC
  18.      音轨 |    起始    |    长度    |  起始扇区  |  结束扇区  
  19.     --------------------------------------------
  20.       1 |  0:00.00 |  4:21.25 |      0 |  19599
  21.       2 |  4:21.25 |  4:37.50 |  19600 |  40424
  22.       3 |  8:59.00 |  4:32.37 |  40425 |  60861
  23.       4 | 13:31.37 |  4:08.13 |  60862 |  79474
  24.       5 | 17:39.50 |  3:51.62 |  79475 |  96861
  25.       6 | 21:31.37 |  4:17.63 |  96862 | 116199
  26.       7 | 25:49.25 |  4:16.00 | 116200 | 135399
  27.       8 | 30:05.25 |  3:52.37 | 135400 | 152836
  28.       9 | 33:57.62 |  3:58.13 | 152837 | 170699
  29.      10 | 37:56.00 |  5:04.00 | 170700 | 193499
  30. 范围状态及错误
  31. 已选择范围
  32.      文件名 D:\追梦者原抓\张学友-偷心(94年港A字版)[追梦者原创]\张学友-偷心(94年港A字版)[追梦者原创].wav
  33.      峰值电平 95.3 %
  34.      抓取速度 1.2 X
  35.      范围质量 99.9 %
  36.      复制 CRC C7EA38F3
  37.      复制成功
  38. 没有错误发生

  39. AccurateRip 摘要

  40. 音轨  1  精确地校准抓取  3)  [9FAC6A1A]  (AR v2)
  41. 音轨  2  精确地校准抓取  3)  [2A93D707]  (AR v2)
  42. 音轨  3  精确地校准抓取  3)  [162E3B26]  (AR v2)
  43. 音轨  4  精确地校准抓取  3)  [21A095C5]  (AR v2)
  44. 音轨  5  精确地校准抓取  3)  [623D254E]  (AR v2)
  45. 音轨  6  精确地校准抓取  3)  [6A61B826]  (AR v2)
  46. 音轨  7  精确地校准抓取  3)  [F9A36DA3]  (AR v2)
  47. 音轨  8  精确地校准抓取  3)  [B284487E]  (AR v2)
  48. 音轨  9  精确地校准抓取  3)  [9C56D8FD]  (AR v2)
  49. 音轨 10  精确地校准抓取  3)  [80B5FB75]  (AR v2)

  50. 所有音轨精确校准抓取
  51. 状态报告结尾
  52. ---- CUETools DB Plugin V2.1.6
  53. [CTDB TOCID: imSrnap2yfGYwON4WVz2Etpa.yo-] found
  54. Submit result: imSrnap2yfGYwON4WVz2Etpa.yo- has been confirmed
  55. Track | CTDB Status
  56.   1   | (17/17) Accurately ripped
  57.   2   | (16/17) Accurately ripped
  58.   3   | (17/17) Accurately ripped
  59.   4   | (17/17) Accurately ripped
  60.   5   | (17/17) Accurately ripped
  61.   6   | (17/17) Accurately ripped
  62.   7   | (17/17) Accurately ripped
  63.   8   | (17/17) Accurately ripped
  64.   9   | (17/17) Accurately ripped
  65. 10   | (17/17) Accurately ripped
  66. ==== 记录校验日志 677418FCF3D8BCF299EEE9E26046A961E31DBAC3DEF5B43564602EB45B092610 ====
复制代码




音频链接:
游客,如果您要查看本帖隐藏内容请 用心回复,勿要灌水、违规,如果您想免回复、免元宝下载请加入贵宾

音频密码: 张学友-偷心(94年港A字版)[追梦者原创]MM.rar (169 Bytes, 下载次数: 16, 售价: 1 个元宝)
发表于 2017-2-27 20:58:12 | 显示全部楼层
原抓的绝对要顶,给力!!
发表于 2017-2-27 22:27:29 | 显示全部楼层
谢谢分享!!!!!!!
回复

使用道具 举报

发表于 2017-2-27 22:32:28 | 显示全部楼层
很喜欢学友的旧歌,感谢楼主。
发表于 2017-2-27 23:14:16 | 显示全部楼层
感谢分享!!!!!
回复

使用道具 举报

发表于 2017-5-6 19:23:59 | 显示全部楼层
谢谢分享!!!!!!!
回复

使用道具 举报

发表于 2017-5-10 10:29:26 | 显示全部楼层
小白一个 顶一下
发表于 2017-7-7 14:18:52 | 显示全部楼层
111111111111111111111111
发表于 2017-7-7 15:13:47 | 显示全部楼层
好好好好听
发表于 2017-7-11 11:48:20 | 显示全部楼层
dont have that many mandarin jacky cd in my collection, thx
您需要登录后才可以回帖 登录 | 快速注册

本版积分规则