烧客HIFI论坛-发烧直到底,来者都是客!

 找回密码
 快速注册

QQ登录

只需一步,快速开始

查看: 2274|回复: 19

[WAV音轨] 【张学友 真情流露(92年T113-01胶圈版)】宝丽金唱片 [追梦者原抓][WAV+CUE/BD]

[复制链接]
发表于 2017-3-3 18:10:16 | 显示全部楼层 |阅读模式

马上注册,结交更多烧友,大家一起分享交流,快心快哉。

您需要 登录 才可以下载或查看,没有帐号?快速注册

x
6137.jpg
psb (3).jpg
psb (4).jpg
psb (1)_副本.jpg
专辑名称:真情流露
专辑歌手:张学友
发行时间:1992-04-01
发行地区:香港
专辑语言:粤语
唱片风格:流行、怀旧
唱片公司:宝丽金唱片
曲目数量:12
专辑版本:韩国T113 01版
内圈编号:531 438-2 T113-14680 <01>
资源格式:WAV+CUE+LOG+600dpi高清套图
资源出处:追梦者原抓

专辑介绍:

     《张学友:真情流露》重回经典时代,新欢不比旧爱,环球复黑王张学友:真情流露经典再现!1992年春张学友推出《真情流露》获得好评如潮,开创了又一个白金销量。当年成为了许多港台和内地音箱经销商试音的首选CD。
       拥有三十多年历史的环球唱片,近期推出了几十款“环球复黑王”珍藏大碟,把本地乐坛历年多位天皇巨星的陈年个人专辑(大多为黑胶唱片),以“仿黑胶”CD的形式重现,并以超低价发售。这些“复黑王”唱片,不仅在封套、歌词集及碟面力求做到跟黑胶版本时的包装一样,就连在音质方面也试图媲美黑胶碟。
       首套“复黑王”所选的唱片有其纪录性所在,如张学友的首张个人专辑《Smile》、邓丽君首张粤语唱片《势不两立》、当年风靡万千少男的《少女杂志》等,现在已几乎很难买到,故唱片公司推出的“复黑王”能吸引不少老乐迷。

专辑曲目:

01. 偷闲加油站I
02. 爱得比妳深
03. 分手总要在雨天
04. Honey B
05. 暗恋妳
06. 明日世界终结时
07. 真情流露
08. 岁月流情
09. 红叶舞秋山
10. 相思风雨中 (张学友、汤宝如)
11. 不要再问
12. 偷闲加油站II



音频链接:
游客,如果您要查看本帖隐藏内容请 用心回复,勿要灌水、违规,如果您想免回复、免元宝下载请加入贵宾

音频密码: 张学友-真情流露(92年T113-01胶圈版)[追梦者原创]MM.rar (188 Bytes, 下载次数: 16, 售价: 1 个元宝)
 楼主| 发表于 2017-3-3 18:10:24 | 显示全部楼层
  1. Exact Audio Copy V1.1 from 23. June 2015
  2. EAC 抓取日志文件从3. 十二月 2015, 8:04
  3. 张学友 / 真情流露
  4. 使用驱动器  :TEAC    CD-W540E   Adapter: 0  ID: 0
  5. 读取模式      : 可靠Secure
  6. 使用精确流     : 是
  7. 清空音频缓存    : 是
  8. 使用 C2 指示器 : 否
  9. 读取偏移校正:               : 686
  10. 读取 Lead-In 和 Lead-Out : 否
  11. 用静音填充抓取中丢失偏移的采样       : 是
  12. 去除首尾静音块               : 否
  13. 在CRC 计算中使用了空样本       : 是
  14. 已用接口                  : 已安装外部 ASPI 接口
  15. 所用输出模式: : 内部 WAV 函数
  16. 样本格式    : 44.100 Hz; 16 Bit; 立体声
  17. 已抓取 CD 的 TOC
  18.      音轨 |    起始    |    长度    |  起始扇区  |  结束扇区  
  19.     --------------------------------------------
  20.       1 |  0:00.33 |  0:57.05 |     33 |   4312
  21.       2 |  0:57.38 |  4:53.50 |   4313 |  26337
  22.       3 |  5:51.13 |  4:48.32 |  26338 |  47969
  23.       4 | 10:39.45 |  4:50.35 |  47970 |  69754
  24.       5 | 15:30.05 |  4:35.53 |  69755 |  90432
  25.       6 | 20:05.58 |  4:38.05 |  90433 | 111287
  26.       7 | 24:43.63 |  5:11.02 | 111288 | 134614
  27.       8 | 29:54.65 |  4:58.08 | 134615 | 156972
  28.       9 | 34:52.73 |  4:13.15 | 156973 | 175962
  29.      10 | 39:06.13 |  4:15.07 | 175963 | 195094
  30.      11 | 43:21.20 |  4:12.18 | 195095 | 214012
  31.      12 | 47:33.38 |  2:48.32 | 214013 | 226644
  32. 范围状态及错误
  33. 已选择范围
  34.      文件名 D:\追梦者原抓\张学友-真情流露(92年T113-01胶圈版)[追梦者原创]\张学友-真情流露(92年T113-01胶圈版)[追梦者原创].wav
  35.      峰值电平 97.7 %
  36.      抓取速度 0.1 X
  37.      范围质量 98.8 %
  38.      复制 CRC 7C36A781
  39.      复制成功
  40. 没有错误发生

  41. AccurateRip 摘要

  42. 音轨  1  精确地校准抓取  27)  [AD77B1B4]  (AR v2)
  43. 音轨  2  精确地校准抓取  23)  [41274DCE]  (AR v2)
  44. 音轨  3  精确地校准抓取  27)  [CB8FBCF3]  (AR v2)
  45. 音轨  4  精确地校准抓取  24)  [F4789585]  (AR v2)
  46. 音轨  5  精确地校准抓取  26)  [6A0DFFE9]  (AR v2)
  47. 音轨  6  精确地校准抓取  27)  [7D3E75EB]  (AR v2)
  48. 音轨  7  精确地校准抓取  26)  [6225AEE0]  (AR v2)
  49. 音轨  8  不能准确地校验 (确认 25)  [4C324552], 返回 AccurateRip [AD617F9D]  (AR v2)
  50. 音轨  9  精确地校准抓取  25)  [DA5635A3]  (AR v2)
  51. 音轨 10  精确地校准抓取  25)  [DB8FCCF4]  (AR v2)
  52. 音轨 11  精确地校准抓取  26)  [1491094B]  (AR v2)
  53. 音轨 12  不能准确地校验 (确认 25)  [97F7EAE9], 返回 AccurateRip [1CA5FDAE]  (AR v2)

  54. 10 音轨精确校准抓取
  55. 2 音轨不能准确校验
  56. 一些音轨不能准确地校验
  57. 状态报告结尾
  58. ---- CUETools DB Plugin V2.1.6
  59. [CTDB TOCID: x65tLFZn1pZhUD9a2qChDDJjDl8-] found
  60. Submit result: x65tLFZn1pZhUD9a2qChDDJjDl8- has been submitted
  61. Track | CTDB Status
  62.   1   | (31/31) Accurately ripped
  63.   2   | (31/31) Accurately ripped
  64.   3   | (31/31) Accurately ripped
  65.   4   | (31/31) Accurately ripped
  66.   5   | (30/31) Accurately ripped
  67.   6   | (31/31) Accurately ripped
  68.   7   | (31/31) Accurately ripped
  69.   8   | ( 0/31) No match
  70.   9   | (31/31) Accurately ripped
  71. 10   | (31/31) Accurately ripped
  72. 11   | (31/31) Accurately ripped
  73. 12   | ( 0/31) No match
  74. ==== 记录校验日志 5335A7BCF1EF8CB190C231A2C2065D0BD164D181B883EEC44E1FBFA84D59483D ====
复制代码
发表于 2017-3-3 19:10:11 | 显示全部楼层
个人最喜欢的学友的一张碟,没有之一
发表于 2017-3-3 19:21:15 | 显示全部楼层
多谢分享学友经典好歌 !
 楼主| 发表于 2017-3-3 21:08:54 | 显示全部楼层
137a 发表于 2017-3-3 19:21
多谢分享学友经典好歌 !

感谢大家的支持,继续努力!
发表于 2017-3-10 09:59:33 | 显示全部楼层
这个是最早的版本吗,谢谢分享
发表于 2017-3-12 11:21:34 | 显示全部楼层
谢谢分享
多谢分享学友经典好歌
发表于 2017-4-25 18:23:38 | 显示全部楼层
谢谢分享@@@
发表于 2018-1-28 17:55:55 | 显示全部楼层
原抓……必须地……
发表于 2018-3-1 10:44:08 | 显示全部楼层
谢谢分享。支持。支持。。
您需要登录后才可以回帖 登录 | 快速注册

本版积分规则