烧客HIFI论坛-发烧直到底,来者都是客!

 找回密码
 快速注册

QQ登录

只需一步,快速开始

查看: 4691|回复: 36

[WAV音轨] 【张学友 只愿一生爱一人(89年T113-01银圈版)】宝丽金唱片[追梦者原抓][WAV+CUE/BD]

[复制链接]
发表于 2017-3-16 12:09:23 | 显示全部楼层 |阅读模式

马上注册,结交更多烧友,大家一起分享交流,快心快哉。

您需要 登录 才可以下载或查看,没有帐号?快速注册

x
psb.jpg
psb%20(1).jpg
psb%20(2).jpg
psb.png
专辑名称:只愿一生爱一人
专辑歌手:张学友
发行时间:1989-12-01
发行地区: 香港
专辑语言:粤语
唱片公司:宝丽金唱片
曲目数量:10
专辑版本:韩国银圈首版
内圈码:839 901-2 T113-6783 <01>
资源格式:WAV+CUE+LOG+600dpi高清套图
唱片风格:怀旧、流行
资源出处:追梦者原抓

专辑介绍:
       如果《给我亲爱的》算是成熟之作的话,那么这张《只愿一生爱一人》则更显成熟、稳重。从唱片封套上的形象到唱片内的每一首歌,都给人以一种温馨的成熟感。
       学友的歌路属情歌路线,这张唱片也不例外。学友演绎情歌火候独到,情浓而温馨,自然而不造作,更能唱出暖暖意境。象"只愿一生爱一人"、"忘情冷雨夜"、"夕阳醉了"、"亲亲"、"你没有错"等都是出色的情歌。

专辑曲目:
01. 只愿一生爱一人
02. 花 花公子
03. 忘情冷雨夜
04. 夕阳醉了
05. 欢场
06. 亲亲
07. 你没有错
08. 迷失的方向
09. 一往情深
10. 信念



音频链接:
游客,如果您要查看本帖隐藏内容请 用心回复,勿要灌水、违规,如果您想免回复、免元宝下载请加入贵宾

音频密码: 张学友-只愿一生爱一人(89年T113-01银圈版)[追梦者原创]MM.rar (201 Bytes, 下载次数: 69, 售价: 1 个元宝)
 楼主| 发表于 2017-3-16 12:09:32 | 显示全部楼层
  1. Exact Audio Copy V1.1 from 23. June 2015
  2. EAC 抓取日志文件从12. 一月 2016, 11:01
  3. 張學友 / 衹願一生愛一人
  4. 使用驱动器  :TEAC    CD-W540E   Adapter: 0  ID: 0
  5. 读取模式      : 可靠Secure
  6. 使用精确流     : 是
  7. 清空音频缓存    : 是
  8. 使用 C2 指示器 : 否
  9. 读取偏移校正:               : 686
  10. 读取 Lead-In 和 Lead-Out : 否
  11. 用静音填充抓取中丢失偏移的采样       : 是
  12. 去除首尾静音块               : 否
  13. 在CRC 计算中使用了空样本       : 是
  14. 已用接口                  : 已安装外部 ASPI 接口
  15. 所用输出模式: : 内部 WAV 函数
  16. 样本格式    : 44.100 Hz; 16 Bit; 立体声
  17. 已抓取 CD 的 TOC
  18.      音轨 |    起始    |    长度    |  起始扇区  |  结束扇区  
  19.     --------------------------------------------
  20.       1 |  0:00.33 |  4:22.25 |     33 |  19707
  21.       2 |  4:22.58 |  3:41.32 |  19708 |  36314
  22.       3 |  8:04.15 |  4:01.43 |  36315 |  54432
  23.       4 | 12:05.58 |  5:10.27 |  54433 |  77709
  24.       5 | 17:16.10 |  4:06.33 |  77710 |  96192
  25.       6 | 21:22.43 |  4:23.25 |  96193 | 115942
  26.       7 | 25:45.68 |  5:07.37 | 115943 | 139004
  27.       8 | 30:53.30 |  4:01.28 | 139005 | 157107
  28.       9 | 34:54.58 |  3:50.42 | 157108 | 174399
  29.      10 | 38:45.25 |  3:43.08 | 174400 | 191132
  30. 范围状态及错误
  31. 已选择范围
  32.      文件名 D:\追梦者原抓\张学友-只愿一生爱一人(89年T113-01银圈版)[追梦者原创]\张学友-只愿一生爱一人(89年T113-01银圈版)[追梦者原创].wav
  33.      峰值电平 98.7 %
  34.      抓取速度 1.2 X
  35.      范围质量 99.9 %
  36.      复制 CRC 3DBFA170
  37.      复制成功
  38. 没有错误发生

  39. AccurateRip 摘要

  40. 音轨  1  精确地校准抓取  12)  [D860B445]  (AR v2)
  41. 音轨  2  精确地校准抓取  11)  [727B2DBD]  (AR v2)
  42. 音轨  3  精确地校准抓取  11)  [E222E5E4]  (AR v2)
  43. 音轨  4  精确地校准抓取  11)  [B3A5F5B0]  (AR v2)
  44. 音轨  5  精确地校准抓取  10)  [B129F575]  (AR v2)
  45. 音轨  6  精确地校准抓取  11)  [649D4C27]  (AR v2)
  46. 音轨  7  精确地校准抓取  10)  [637284CA]  (AR v2)
  47. 音轨  8  精确地校准抓取  10)  [C0FD6848]  (AR v2)
  48. 音轨  9  精确地校准抓取  10)  [F1A51AE4]  (AR v2)
  49. 音轨 10  精确地校准抓取  10)  [89B7D65C]  (AR v2)

  50. 所有音轨精确校准抓取
  51. 状态报告结尾
  52. ---- CUETools DB Plugin V2.1.6
  53. [CTDB TOCID: qWp.GV_4t_M3sXKskVMzAOp2ch0-] found
  54. Submit result: qWp.GV_4t_M3sXKskVMzAOp2ch0- has been confirmed
  55. Track | CTDB Status
  56.   1   | (11/11) Accurately ripped
  57.   2   | (11/11) Accurately ripped
  58.   3   | (11/11) Accurately ripped
  59.   4   | (11/11) Accurately ripped
  60.   5   | (11/11) Accurately ripped
  61.   6   | (10/11) Accurately ripped, or (1/11) differs in 716 samples @01:12:46-01:12:47,01:17:10-01:17:11,01:19:63-01:19:64,03:02:12-03:02:13,03:10:64-03:10:65,03:47:62-03:47:63,03:51:14-03:51:15,03:59:45,04:03:39-04:03:40,04:03:53-04:03:54,04:11:71-04:11:72
  62.   7   | (11/11) Accurately ripped
  63.   8   | (10/11) Accurately ripped, or (1/11) differs in 776 samples @02:00:68,02:16:00,02:23:11,02:39:24,02:39:39-02:39:40,02:45:51,02:59:33-02:59:34,02:59:64,03:13:33-03:13:34,03:21:52-03:21:53,03:21:68,03:22:55,03:29:72-03:29:73,03:34:54-03:34:55,03:41:57-03:41:58,03:43:63
  64.   9   | ( 8/11) Accurately ripped, or (1/11) differs in 832 samples @00:42:18,00:46:63-00:46:64,00:48:23-00:48:24,00:51:34-00:51:35,00:57:40-00:57:41,01:05:55,01:48:08-01:48:09,01:51:21-01:51:22,02:01:50,02:29:69-02:29:70,02:46:10-02:46:11,02:51:19-02:51:20,02:54:19-02:54:20,03:10:24
  65. 10   | ( 8/11) Accurately ripped, or (1/11) differs in 543 samples @00:54:41-00:54:42,00:59:25-00:59:26,01:10:17-01:10:18,01:13:54,01:19:13-01:19:14,01:20:36-01:20:37,01:29:66-01:29:67,01:34:35-01:34:36
  66. ==== 记录校验日志 4B28FB0D13BBC1B1AFAE341F35EA29BE204D60B03833FFAA742AA081F2333C50 ====
复制代码
发表于 2017-3-16 17:09:14 | 显示全部楼层
感谢分享!辛苦了。
发表于 2017-3-16 21:04:40 | 显示全部楼层
谢谢版主分享
发表于 2017-3-17 16:37:00 | 显示全部楼层
非常好的歌曲
发表于 2017-3-26 12:34:11 | 显示全部楼层
很给力!!!!!!!!!!!
回复

使用道具 举报

发表于 2017-5-6 17:19:50 | 显示全部楼层
谢谢版主分享
发表于 2017-5-6 21:01:13 | 显示全部楼层
谢谢分享@@@
发表于 2017-6-24 23:23:40 | 显示全部楼层
歌神的早期作品,感谢分享
发表于 2017-6-28 13:48:41 | 显示全部楼层
回复

使用道具 举报

您需要登录后才可以回帖 登录 | 快速注册

本版积分规则