烧客HIFI论坛-发烧直到底,来者都是客!

 找回密码
 快速注册

QQ登录

只需一步,快速开始

查看: 12291|回复: 174

[WAV音轨] 【陈慧娴 你身边永是我(93年韩压01首版)】宝丽金唱片 [追梦者原抓][WAV+CUE/BD]

  [复制链接]
发表于 2017-3-18 11:36:16 | 显示全部楼层 |阅读模式

马上注册,结交更多烧友,大家一起分享交流,快心快哉。

您需要 登录 才可以下载或查看,没有帐号?快速注册

x
本帖最后由 砖家 于 2018-6-16 15:52 编辑

psb%20(2).jpg
psb.jpg
psb%20(1).jpg

psb.png
专辑名称:你身边永是我
专辑歌手:陈慧娴
发行时间:1993-03-05
发行地区:香港
专辑语言:粤语
唱片公司:宝丽金唱片
曲目数量:10
专辑版本:香港01首版(第三代韩压)
内圈码:521195-2 21285 01
资源格式:WAV+CUE+LOG+600dpi高清套图
唱片风格:怀旧、流行
资源出处:追梦者原抓

专辑介绍:

89年 陈慧娴 和林忆莲,刘美君,邝美云 并称为“四大花旦”。
不久之后,陈慧娴就暂别歌坛,外出留学,这张专辑是陈慧娴求学过程中所出的第二张专辑,也是她个人专辑的第九张。
这张专辑在基本上保留了陈慧娴的一贯风格上也尝试了一点点其他的音乐形式。

专辑曲目:

01.JEALOUSY
02.夜了点
03.碎花
04.重头爱你
05.永远爱你的人
06.好想永远这样-陈慧娴 黎明合唱
07.放纵三分钟
08.你身边永是我
09.为情为爱-陈慧娴 黎瑞恩合唱
10.故梦



音频链接:
游客,如果您要查看本帖隐藏内容请 用心回复,勿要灌水、违规,如果您想免回复、免元宝下载请加入贵宾
音频密码: 陈慧娴-你身边永是我(93年韩压01首版)[追梦者原创]MM.rar (190 Bytes, 下载次数: 125, 售价: 1 个元宝)
 楼主| 发表于 2017-3-18 11:36:25 | 显示全部楼层
  1. Exact Audio Copy V1.1 from 23. June 2015
  2. EAC 抓取日志文件从2. 三月 2016, 10:22
  3. 陳慧嫻 / 你身邊永是我
  4. 使用驱动器  :TEAC    CD-W540E   Adapter: 4  ID: 0
  5. 读取模式      : 可靠Secure
  6. 使用精确流     : 是
  7. 清空音频缓存    : 是
  8. 使用 C2 指示器 : 否
  9. 读取偏移校正:               : 686
  10. 读取 Lead-In 和 Lead-Out : 否
  11. 用静音填充抓取中丢失偏移的采样       : 是
  12. 去除首尾静音块               : 否
  13. 在CRC 计算中使用了空样本       : 是
  14. 已用接口                  : 已安装外部 ASPI 接口
  15. 所用输出模式: : 内部 WAV 函数
  16. 样本格式    : 44.100 Hz; 16 Bit; 立体声
  17. 已抓取 CD 的 TOC
  18.      音轨 |    起始    |    长度    |  起始扇区  |  结束扇区  
  19.     --------------------------------------------
  20.       1 |  0:00.32 |  4:21.20 |     32 |  19626
  21.       2 |  4:21.52 |  3:07.18 |  19627 |  33669
  22.       3 |  7:28.70 |  4:22.42 |  33670 |  53361
  23.       4 | 11:51.37 |  4:02.45 |  53362 |  71556
  24.       5 | 15:54.07 |  4:07.20 |  71557 |  90101
  25.       6 | 20:01.27 |  4:51.30 |  90102 | 111956
  26.       7 | 24:52.57 |  4:29.03 | 111957 | 132134
  27.       8 | 29:21.60 |  4:33.10 | 132135 | 152619
  28.       9 | 33:54.70 |  4:19.20 | 152620 | 172064
  29.      10 | 38:14.15 |  4:27.67 | 172065 | 192156
  30. 范围状态及错误
  31. 已选择范围
  32.      文件名 D:\追梦者原抓\陈慧娴-你身边永是我(93年韩压01首版)[追梦者原创]\陈慧娴-你身边永是我(93年韩压01首版)[追梦者原创].wav
  33.      峰值电平 100.0 %
  34.      抓取速度 1.2 X
  35.      范围质量 99.9 %
  36.      复制 CRC 2C1DFCFB
  37.      复制成功
  38. 没有错误发生

  39. AccurateRip 摘要

  40. 音轨  1  精确地校准抓取  18)  [9DB744BD]  (AR v2)
  41. 音轨  2  精确地校准抓取  18)  [3AD5C903]  (AR v2)
  42. 音轨  3  精确地校准抓取  18)  [001EF7D5]  (AR v2)
  43. 音轨  4  精确地校准抓取  18)  [9F6846CD]  (AR v2)
  44. 音轨  5  精确地校准抓取  18)  [0ED6340A]  (AR v2)
  45. 音轨  6  精确地校准抓取  18)  [AA556C84]  (AR v2)
  46. 音轨  7  精确地校准抓取  18)  [A0E98F84]  (AR v2)
  47. 音轨  8  精确地校准抓取  19)  [30E521D3]  (AR v2)
  48. 音轨  9  精确地校准抓取  18)  [529B2B7E]  (AR v2)
  49. 音轨 10  精确地校准抓取  18)  [F0515C32]  (AR v2)

  50. 所有音轨精确校准抓取
  51. 状态报告结尾
  52. ---- CUETools DB Plugin V2.1.6
  53. [CTDB TOCID: yi0Cm8fBueGwsSDnhMwuk602IzA-] found
  54. Submit result: yi0Cm8fBueGwsSDnhMwuk602IzA- has been confirmed
  55. Track | CTDB Status
  56.   1   | (12/12) Accurately ripped
  57.   2   | (12/12) Accurately ripped
  58.   3   | (12/12) Accurately ripped
  59.   4   | (12/12) Accurately ripped
  60.   5   | (12/12) Accurately ripped
  61.   6   | (12/12) Accurately ripped
  62.   7   | (12/12) Accurately ripped
  63.   8   | (12/12) Accurately ripped
  64.   9   | (12/12) Accurately ripped
  65. 10   | (12/12) Accurately ripped
  66. ==== 记录校验日志 A1D9AFD0F5B47B612002E4E01175FACA84CAD46CF3C31C7DC0D79DEB384BE012 ====
复制代码
发表于 2017-3-18 12:45:16 | 显示全部楼层
谢谢分享                           
发表于 2017-4-27 04:39:32 | 显示全部楼层
感谢 追梦者 分享!@@@
发表于 2017-5-6 17:18:20 | 显示全部楼层

谢谢分享!!!!
回复

使用道具 举报

发表于 2017-5-21 23:46:49 | 显示全部楼层
想听听老歌
发表于 2017-7-1 13:38:56 | 显示全部楼层
priscilla 回香港后的第二张唱片, 质素不错
发表于 2017-7-7 15:27:58 | 显示全部楼层
好好好好好好好
发表于 2017-7-7 22:22:54 | 显示全部楼层
好的,陈慧娴
发表于 2017-7-10 18:28:02 | 显示全部楼层
谢谢分享!支持正版!
您需要登录后才可以回帖 登录 | 快速注册

本版积分规则