烧客HIFI论坛-发烧直到底,来者都是客!

 找回密码
 快速注册

QQ登录

只需一步,快速开始

查看: 3118|回复: 30

[WAV音轨] 【李克勤 一千零一夜(90年T113-01银圈版)】宝丽金唱片 [追梦者原抓][WAV+CUE/BD]

[复制链接]
发表于 2017-3-26 11:04:50 | 显示全部楼层 |阅读模式

马上注册,结交更多烧友,大家一起分享交流,快心快哉。

您需要 登录 才可以下载或查看,没有帐号?快速注册

x
本帖最后由 追梦者 于 2017-3-26 11:09 编辑

psb.jpg
psb%20(1).jpg
psb%20(2).jpg
psb.png
专辑名称:一千零一夜
专辑歌手:李克勤
发行时间:1990-06-01
发行地区:香港
专辑语言:粤语
唱片公司:宝丽金唱片
曲目数量:11
专辑版本:韩国T113-01银圈首版
内圈编码:842 937-2 T113-8308 <01>
资源格式:WAV+CUE+LOG+600dpi高清套图
唱片风格:怀旧、流行
资源出处:追梦者原抓

专辑介绍:

专辑内以抒情歌为主,有多首为电视剧和电影的主题曲和插曲。
得奖歌曲《眷恋》和《一千零一夜》从旋律到节奏带来了强烈的新鲜感。
李克勤亲自《眷恋》和《没终止的夜》填词。

专辑曲目:

01. 一千零一夜
02. 爱是情愿
03. 迷离境界
04. 没终止的夜
05. 一切是创造 (李克勤 关淑怡合唱)
06. 雷雨
07. 眷恋
08. 醉人的一晚
09. 仍然深爱着你
10. 静夜
11. 创造美好明天



音频链接:
游客,如果您要查看本帖隐藏内容请 用心回复,勿要灌水、违规,如果您想免回复、免元宝下载请加入贵宾

音频密码: 李克勤-一千零一夜(90年T113-01银圈版)[追梦者原创]MM.rar (193 Bytes, 下载次数: 62)
 楼主| 发表于 2017-3-26 11:04:59 | 显示全部楼层
  1. Exact Audio Copy V1.1 from 23. June 2015
  2. EAC 抓取日志文件从20. 五月 2016, 16:26
  3. 李克勤 / 一千零一夜(90年T113-01银圈版)[追梦者原创]
  4. 使用驱动器  :TEAC    CD-W540E   Adapter: 0  ID: 0
  5. 读取模式      : 可靠Secure
  6. 使用精确流     : 是
  7. 清空音频缓存    : 是
  8. 使用 C2 指示器 : 否
  9. 读取偏移校正:               : 686
  10. 读取 Lead-In 和 Lead-Out : 否
  11. 用静音填充抓取中丢失偏移的采样       : 是
  12. 去除首尾静音块               : 否
  13. 在CRC 计算中使用了空样本       : 是
  14. 已用接口                  : 已安装外部 ASPI 接口
  15. 所用输出模式: : 内部 WAV 函数
  16. 样本格式    : 44.100 Hz; 16 Bit; 立体声
  17. 已抓取 CD 的 TOC
  18.      音轨 |    起始    |    长度    |  起始扇区  |  结束扇区  
  19.     --------------------------------------------
  20.       1 |  0:00.33 |  4:15.72 |     33 |  19229
  21.       2 |  4:16.30 |  3:56.53 |  19230 |  36982
  22.       3 |  8:13.08 |  3:16.27 |  36983 |  51709
  23.       4 | 11:29.35 |  4:01.20 |  51710 |  69804
  24.       5 | 15:30.55 |  3:03.23 |  69805 |  83552
  25.       6 | 18:34.03 |  4:24.52 |  83553 | 103404
  26.       7 | 22:58.55 |  4:44.30 | 103405 | 124734
  27.       8 | 27:43.10 |  4:15.23 | 124735 | 143882
  28.       9 | 31:58.33 |  3:58.35 | 143883 | 161767
  29.      10 | 35:56.68 |  5:00.17 | 161768 | 184284
  30.      11 | 40:57.10 |  4:32.05 | 184285 | 204689
  31. 范围状态及错误
  32. 已选择范围
  33.      文件名 F:\追梦者原抓\李克勤-一千零一夜(90年T113-01银圈版)[追梦者原创]\李克勤-一千零一夜(90年T113-01银圈版)[追梦者原创].wav
  34.      峰值电平 91.3 %
  35.      抓取速度 1.2 X
  36.      范围质量 100.0 %
  37.      复制 CRC 31136BA8
  38.      复制成功
  39. 没有错误发生

  40. AccurateRip 摘要

  41. 音轨  1  精确地校准抓取  6)  [94070DFA]  (AR v2)
  42. 音轨  2  精确地校准抓取  6)  [9627B0AC]  (AR v2)
  43. 音轨  3  精确地校准抓取  6)  [48DC5BB6]  (AR v2)
  44. 音轨  4  精确地校准抓取  6)  [3151034C]  (AR v2)
  45. 音轨  5  精确地校准抓取  6)  [C6575AFF]  (AR v2)
  46. 音轨  6  精确地校准抓取  6)  [924A92C3]  (AR v2)
  47. 音轨  7  精确地校准抓取  6)  [51A6AEBA]  (AR v2)
  48. 音轨  8  精确地校准抓取  6)  [4FF08C5E]  (AR v2)
  49. 音轨  9  精确地校准抓取  6)  [C6AC484C]  (AR v2)
  50. 音轨 10  精确地校准抓取  6)  [A1D03EF4]  (AR v2)
  51. 音轨 11  精确地校准抓取  6)  [E04C8192]  (AR v2)

  52. 所有音轨精确校准抓取
  53. 状态报告结尾
  54. ---- CUETools DB Plugin V2.1.6
  55. [CTDB TOCID: RfzPUvnbv4gYw6HQbOFVgV7u3ro-] found
  56. Submit result: already submitted
  57. Track | CTDB Status
  58.   1   | (10/10) Accurately ripped
  59.   2   | (10/10) Accurately ripped
  60.   3   | (10/10) Accurately ripped
  61.   4   | (10/10) Accurately ripped
  62.   5   | (10/10) Accurately ripped
  63.   6   | (10/10) Accurately ripped
  64.   7   | (10/10) Accurately ripped
  65.   8   | ( 9/10) Accurately ripped
  66.   9   | ( 9/10) Accurately ripped
  67. 10   | (10/10) Accurately ripped
  68. 11   | (10/10) Accurately ripped
  69. ==== 记录校验日志 65141825AD3155FA2E3324045DEAFEAF3AAC3D691E8FF85452FA18AA40C4A0F2 ====
复制代码
发表于 2017-3-26 11:56:52 | 显示全部楼层
太给力了11111111111111111
发表于 2017-3-27 00:05:46 | 显示全部楼层
谢谢分享!!!!!!!!
回复

使用道具 举报

发表于 2017-3-28 06:20:41 | 显示全部楼层
谢谢分享!
回复

使用道具 举报

发表于 2017-3-28 08:19:15 | 显示全部楼层
李克勤也算熬出来了
发表于 2017-5-6 16:03:29 | 显示全部楼层
谢谢分享@@@~~
发表于 2017-6-14 09:19:03 | 显示全部楼层
有没搞错这还要隐藏啊!!!!
发表于 2017-7-1 11:21:20 | 显示全部楼层
hacken's 1990 cd....very good duet with shirley kwan...good songs
发表于 2017-7-10 20:29:00 | 显示全部楼层
学生时代可谓特别喜欢李克勤,现在很久没听他的歌曲了,看到这样好的版本,必须收下啊,感谢分享。
您需要登录后才可以回帖 登录 | 快速注册

本版积分规则