烧客HIFI论坛-发烧直到底,来者都是客!

 找回密码
 快速注册

QQ登录

只需一步,快速开始

查看: 8342|回复: 248

[人声类] 【群星 戏东方 DSD】索乐唱片【原抓】女子和声歌韵再传国粹[WAV+CUE/BD]

  [复制链接]
发表于 2017-7-30 11:06:28 | 显示全部楼层 |阅读模式

马上注册,结交更多烧友,大家一起分享交流,快心快哉。

您需要 登录 才可以下载或查看,没有帐号?快速注册

x
1.jpg
2.jpg
专辑名称:戏东方
专辑版本:DSD
专辑艺人:群星
专辑出版:广东音像出版社
唱片发行:索乐唱片
唱片风格:发烧和声、发烧民族风、HI-FI China-Wave
发行时间:2008年
资源类型:WAV/CUE/LOG



专辑介绍:

百年中华民族音乐献礼-《戏东方》年度发烧至尊大碟!
2008年度发烧唱片界知名人士夸手联合推荐,必藏品!索乐唱片诚意制作!
展现中华音乐瑰宝 体现戏曲、小调、民谣魅力将中华五千年文化渗透到音乐中柔美歌声載经典,曲调新弹玩时尚。
女子和声歌韵再传国粹 旧曲新唱神魄飞扬民乐与西方大型管弦搭配让经典再成时尚。

全新制作理念融合世界最尖端混音技術

听一声字正腔圆,道一句荡气回肠。女子合唱团发烧专辑,旧曲新唱神魄飞扬,再现中华音乐瑰宝,赋予戏曲、小调、民谣迷人魅力。展现中华音乐瑰宝,体现戏曲、小调、民谣魅力。将中华五千年文化渗透到音乐中。



专辑曲目

01. 唱脸谱    [0:05:02.40]

02. 天上掉下个林妹妹    [0:04:06.26]
03. 手拿蝶儿敲起来    [0:03:08.49]
04. 对花    [0:04:10.50]
05. 三笑    [0:03:32.33]
06. 谁说女子不如男    [0:03:48.37]
07. 前门情思大碗茶    [0:04:25.72]

08. 编花篮    [0:03:45.09]
09. 绣荷包    [0:04:06.60]
10. 紫竹调    [0:04:14.57]
11. 苏三起解    [0:03:43.11]
12. 我家有个小九妹    [0:03:19.19]
13. 采红菱    [0:03:28.07]
14. 只有山歌敬亲人    [0:02:51.23]



友情提醒

百度分享链接


游客,如果您要查看本帖隐藏内容请 用心回复,勿要灌水、违规,如果您想免回复、免元宝下载请加入贵宾

 楼主| 发表于 2017-7-30 11:24:13 | 显示全部楼层
  1. Exact Audio Copy V1.0 beta 3 from 29. August 2011

  2. EAC extraction logfile from 21. August 2013, 16:23

  3. 群星 / 戏东方

  4. Used drive  : PIONEER DVD-RW DVR-K17RS   Adapter: 2  ID: 1

  5. Read mode               : Secure
  6. Utilize accurate stream : Yes
  7. Defeat audio cache      : Yes
  8. Make use of C2 pointers : No

  9. Read offset correction                      : 48
  10. Overread into Lead-In and Lead-Out          : No
  11. Fill up missing offset samples with silence : Yes
  12. Delete leading and trailing silent blocks   : No
  13. Null samples used in CRC calculations       : Yes
  14. Used interface                              : Native Win32 interface for Win NT & 2000

  15. Used output format : Internal WAV Routines
  16. Sample format      : 44.100 Hz; 16 Bit; Stereo


  17. TOC of the extracted CD

  18.      Track |   Start  |  Length  | Start sector | End sector
  19.     ---------------------------------------------------------
  20.         1  |  0:00.00 |  5:02.40 |         0    |    22689   
  21.         2  |  5:02.40 |  4:06.26 |     22690    |    41165   
  22.         3  |  9:08.66 |  3:08.49 |     41166    |    55314   
  23.         4  | 12:17.40 |  4:10.50 |     55315    |    74114   
  24.         5  | 16:28.15 |  3:32.33 |     74115    |    90047   
  25.         6  | 20:00.48 |  3:48.37 |     90048    |   107184   
  26.         7  | 23:49.10 |  4:25.72 |    107185    |   127131   
  27.         8  | 28:15.07 |  3:45.09 |    127132    |   144015   
  28.         9  | 32:00.16 |  4:06.60 |    144016    |   162525   
  29.        10  | 36:07.01 |  4:14.57 |    162526    |   181632   
  30.        11  | 40:21.58 |  3:43.11 |    181633    |   198368   
  31.        12  | 44:04.69 |  3:19.19 |    198369    |   213312   
  32.        13  | 47:24.13 |  3:28.07 |    213313    |   228919   
  33.        14  | 50:52.20 |  2:51.23 |    228920    |   241767   


  34. Range status and errors

  35. Selected range

  36.      Filename E:\试音发烧\群星 - 戏东方\群星 - 戏东方.wav

  37.      Peak level 100.0 %
  38.      Extraction speed 4.3 X
  39.      Range quality 100.0 %
  40.      Copy CRC F237946F
  41.      Copy OK

  42. No errors occurred

  43. End of status report

复制代码
发表于 2017-7-30 16:04:56 | 显示全部楼层
欣赏一下,谢谢分享。
发表于 2017-7-30 16:31:36 | 显示全部楼层
感谢断剑残阳分享!
发表于 2017-7-30 18:23:58 | 显示全部楼层
都是戏曲名段,值得收藏!
发表于 2017-7-30 19:50:35 | 显示全部楼层
欣赏一下,谢谢分享。
发表于 2017-7-31 11:45:35 | 显示全部楼层
感谢楼主分享好碟
发表于 2017-7-31 17:41:19 | 显示全部楼层
非常不错的国粹,发烧人声和声碟!
发表于 2017-8-1 01:35:34 | 显示全部楼层
听一声字正腔圆,道一句荡气回肠。
发表于 2017-8-10 13:20:32 | 显示全部楼层
经典,谢谢分享。
您需要登录后才可以回帖 登录 | 快速注册

本版积分规则