烧客HIFI论坛-发烧直到底,来者都是客!

 找回密码
 快速注册

QQ登录

只需一步,快速开始

查看: 2778|回复: 66

[WAV音轨] 【群星 官方乐典2 AQCD】魔音唱片 顶级发烧民乐 华夏韵律之最美[WAV+CUE/BD]

  [复制链接]
发表于 2018-6-9 20:05:14 | 显示全部楼层 |阅读模式

马上注册,结交更多烧友,大家一起分享交流,快心快哉。

您需要 登录 才可以下载或查看,没有帐号?快速注册

x
官方乐典2aqcd-cover_副本.jpg


专辑名称:官方乐典2
专辑版本:AQCD
专辑艺人:群星
唱片风格:民族乐器发烧大碟
发行公司:广东东昇影视文化传播有限公司
策划制作:魔音唱片
ISBN:978-7-88516-962-6
发行公司:2013年11月
资源类型:WAV+CUE


官方乐典2AQCD-BACK_副本.jpg

专辑简介:


史上顶级的发烧民乐,汇聚古典国乐瑰宝,集民族器乐之大成,聆华夏韵律之最美 最具特色的乐珍集。
令人惊叹的发烧感觉,民族器乐之大成,华夏韵律之最美;经典再现,完美音韵,在聆听中浮幻,在重温中忆起,在美妙中感动……久违的旋律,熟悉的曲调,将我们带入那令人遐思向往的境界,追寻着传世间唯一的深情……


紫银合金AQCD(AnalogQualityCompactDisc)采用特别研发的紫色基片,以更耐热,耐光的银合金取代传统的铝质表面涂层,透过精密的技术印制,减少了数字CD光盘的误差,提高了音频重播的精确度,无论现场感,平衡度与细节表现都有了很大的改进,音效表现明显比一般CD优胜,高音质的紫银合金AQCD,重现黑胶唱片的超凡魅力。


官方乐典2AQCD-CD_副本.jpg


专辑曲目:


01.说句心里话
02.浏阳河
03.难忘今宵
04.南泥湾
05.沂蒙颂
06.绒花
07.牧羊曲
08.茉莉花
09.谁不说俺家乡好
10.红梅赞
11.心中的玫瑰
12.映山红
13.渔家姑娘在海边


分享链接死链反馈

友情提醒

游客,如果您要查看本帖隐藏内容请 用心回复,勿要灌水、违规,如果您想免回复、免元宝下载请加入贵宾


 楼主| 发表于 2018-6-9 20:05:27 | 显示全部楼层
  1. Exact Audio Copy V0.99 prebeta 5 from 4. May 2009

  2. EAC 抓取日志文件从12. 十二月 2014, 6:21

  3. 群星 / 官方乐典2AQCD

  4. 使用驱动器  :MATSHITADVD-RAM UJ8FB   Adapter: 0  ID: 0

  5. 读取模式     : 保护
  6. 使用精确流   : 是
  7. 废除音频缓冲 : 是
  8. 使用 C2 指针 : 否

  9. 组合读/写偏移校正              : 6
  10. 读取 Lead-In 和 Lead-Out       : 否
  11. 用静音填充抓取中丢失偏移的采样 : 是
  12. 去除首尾静音块                 : 否
  13. 在 CRC 计算中使用了空样本      : 否
  14. 已用接口                       : Win NT 及 2000 本地 Win32 接口

  15. 所用输出格式 : 内部 WAV 函数
  16. 样本格式     : 44.100 Hz;16 Bit;立体声


  17. 被抓轨 CD 的 TOC

  18.      音轨 |   开始   |   长度   | 起始扇区 | 结尾扇区
  19.     --------------------------------------------------
  20.        1  |  0:00.00 |  4:16.38 |       0  |   19237  
  21.        2  |  4:16.38 |  4:21.62 |   19238  |   38874  
  22.        3  |  8:38.25 |  4:46.21 |   38875  |   60345  
  23.        4  | 13:24.46 |  4:40.65 |   60346  |   81410  
  24.        5  | 18:05.36 |  4:13.19 |   81411  |  100404  
  25.        6  | 22:18.55 |  4:49.49 |  100405  |  122128  
  26.        7  | 27:08.29 |  4:41.28 |  122129  |  143231  
  27.        8  | 31:49.57 |  4:06.43 |  143232  |  161724  
  28.        9  | 35:56.25 |  4:16.56 |  161725  |  180980  
  29.       10  | 40:13.06 |  4:57.66 |  180981  |  203321  
  30.       11  | 45:10.72 |  3:16.44 |  203322  |  218065  
  31.       12  | 48:27.41 |  4:55.46 |  218066  |  240236  
  32.       13  | 53:23.12 |  5:01.14 |  240237  |  262825  
  33.       14  | 58:24.26 |  0:04.09 |  262826  |  263134  


  34. 范围状态及错误

  35. 已选择范围

  36.      文件名 F:\烧客音乐论坛原抓上传区\官方乐典2AQCD\hi-fire.cn.wav

  37.      峰值电平 97.7 %
  38.      范围质量 100.0 %
  39.      复制 CRC D1504A5D
  40.      复制成功

  41. 没有错误发生

  42. 状态报告结尾
复制代码
发表于 2018-6-9 20:47:00 | 显示全部楼层
谢谢楼主分享
发表于 2018-6-9 21:35:44 | 显示全部楼层
感谢分享!
回复

使用道具 举报

发表于 2018-6-9 22:19:28 | 显示全部楼层
下载欣赏,多谢分享
发表于 2018-6-10 00:06:33 | 显示全部楼层
谢谢分享
回复

使用道具 举报

发表于 2018-6-10 00:47:52 | 显示全部楼层
谢楼主分享
发表于 2018-6-10 00:47:54 | 显示全部楼层
感谢分享!
回复

使用道具 举报

发表于 2018-6-10 05:23:13 | 显示全部楼层
感谢分享!!
回复

使用道具 举报

发表于 2018-6-10 05:35:18 | 显示全部楼层
满碟好曲,得下。谢谢版主!
您需要登录后才可以回帖 登录 | 快速注册

本版积分规则