烧客HIFI论坛-发烧直到底,来者都是客!

 找回密码
 快速注册

QQ登录

只需一步,快速开始

查看: 13021|回复: 521

[WAV音轨] 【木村好夫 发烧吉他天碟】ABC唱片 炉火纯青的弹奏 巅峰的制作[WAV+CUE/BD]

  [复制链接]
发表于 2018-6-17 08:40:45 | 显示全部楼层 |阅读模式

马上注册,结交更多烧友,大家一起分享交流,快心快哉。

您需要 登录 才可以下载或查看,没有帐号?快速注册

x
本帖最后由 砖家 于 2018-6-17 12:00 编辑

cover_副本.jpg CD_副本.jpg
Back_副本.jpg

专辑名称:发烧吉他天碟
专辑版本:6N纯银镀膜
专辑艺人:木村好夫
唱片风格:乐器发烧
发行公司:爱必希ABC国际唱片
发行时间:2017年
资源类型:WAV+CUE



专辑简介:

木村好夫是日本的天皇巨星,他的那首好戏就是演奏日本民间演歌(动听的传统及现代歌谣),弹奏风格醇厚温和,炉火纯青,录音也是靓到惊人,在此碟面世之前,未经任何评价,不少音响发烧友已经听声收货,音色通透,定位准确。
木村好夫的精湛演奏技巧世界闻名,他弹奏吉他的音色已经成了“发烧”的代名词。这些经典金曲给你带来无限思念,段段回忆,上好音色,动听旋律,节奏明快,意境浪漫,情怀醉心宝典。每一首金曲都如欧洲古典音乐中贝多芬、舒伯特、柴可夫斯基等音乐名家的作品一样,永远灿若星汉,永远存在于千家万户的永恒钟情之中。


6N纯银镀膜压片Limited Edition 99.9999%Silver 特点:

1. 使用高格式High Defrinition Mastering CD来制做母盘。
2. 现场模拟录音,1:1的直刻母带技术。
3. 6N纯银镀模生产CD,全过程德国制造。
4. 100kHz/24bit的信号处理,解析力高,音域宽广,令音色及质量有非常大的提高,使器材能精确的读取该数据及回放出近乎原音的音效。


专辑曲目:


01.北の旅人 / 北方旅行者 作曲:弦哲也 03:11
A Traveler in the Northcomposed by: Tetsuya String
02.瀬戸の花嫁 / 濑户之新娘 作曲:平尾昌晃 03:20
Seto’s Bridecomposed by: Masaaki Hirao
03.星影のワルツ / 星光华尔兹 作曲:遠藤実 04:06
Starlight Waltz composed by: Endo Minoru
04.北国の春 / 北国之春 作曲:遠藤実 03:57
Northern Spring composed by: Endo Minoru
05.夜來香 / 夜來香作曲:黎锦光 02:53
The Evening Incense composed by: Li Jinguang
06.白い花の咲く頃 / 白花开放的时候 作曲:田村 しげる 03:29
The Blooming of White Flowerscomposed by: Shigeru Tamura
07.港町ブルース / 港町蓝调 作曲:猪俣公章 03:08
Port City Bluescomposed by: Inomata Urakawa
08.なみだ 戀 / 含泪爱情 作曲:鈴木淳 03:23
Tears of Love composed by: Atsushi Suzuki
09.くちなしの花 / 栀子之花 作曲:遠藤実 04:02
Gardenia’s Flowercomposed by: Endo Minoru
10.リンゴ村から / 苹果树 作曲:林伊佐緒 03:27
Composed from Apple Villagecomposed by: Isao Hayashi
11.釜山港へ帰れ / 回到釜山港 作曲:黄善友 03:46
Return to Busan Portcomposed by: Huang Shanyou
12.さざんかの宿 / 山茶花之宿 作曲:市川昭介 04:30
Sazanka Hotel composed by: Shosuke Ichikawa
13.夜霧のブルース / 夜霧勃魯斯 作曲:大久保徳二郎 02:59
Night’s Bluescomposed by: Tokujiro Okubo
14.おんなの宿 / 女人的归宿 作曲:船村徹 03:58
Women’s lodgingcomposed by: Toru Hunumura
15.あなたの心に / 在你心中 作曲:都倉俊一 02:42
Compose in your mindcomposed by: Shunichi Tokura
16.友禅流し / 友禅流水 作曲:乙田修三 03:35
Yuzen composed by: Otada Shuzo
17.大阪しぐれ / 大阪雨夜 作曲:市川昭介 03:52
Osaka Shigure composed by: Shosuke Ichikawa
18からたち日記 / 空白日记 作曲:遠藤実 05:00


分享链接死链反馈

友情提醒

游客,如果您要查看本帖隐藏内容请 用心回复,勿要灌水、违规,如果您想免回复、免元宝下载请加入贵宾

 楼主| 发表于 2018-6-17 08:40:46 | 显示全部楼层
  1. Exact Audio Copy V1.3 from 2. September 2016

  2. EAC 抓取日志文件从24. 五月 2018, 10:03

  3. 木村好夫 / 发烧吉他天碟[6N纯银镀膜]

  4. 使用驱动器  :ATAPI   DVD D  DH16D6SH   Adapter: 1  ID: 2

  5. 读取模式      : 可靠Secure
  6. 使用精确流     : 是
  7. 清空音频缓存    : 是
  8. 使用 C2 指示器 : 否

  9. 读取偏移校正:               : 0
  10. 读取 Lead-In 和 Lead-Out : 否
  11. 用静音填充抓取中丢失偏移的采样       : 是
  12. 去除首尾静音块               : 否
  13. 在CRC 计算中使用了空样本       : 是
  14. 已用接口                  : Win NT 及 2000 本地 Win32 接口

  15. 所用输出模式: : 内部 WAV 函数
  16. 样本格式    : 44.100 Hz; 16 Bit; 立体声


  17. 已抓取 CD 的 TOC

  18.      音轨 |    起始    |    长度    |  起始扇区  |  结束扇区  
  19.     --------------------------------------------
  20.       1 |  0:00.00 |  3:11.00 |      0 |  14324
  21.       2 |  3:11.00 |  3:20.00 |  14325 |  29324
  22.       3 |  6:31.00 |  4:06.00 |  29325 |  47774
  23.       4 | 10:37.00 |  3:57.00 |  47775 |  65549
  24.       5 | 14:34.00 |  2:53.00 |  65550 |  78524
  25.       6 | 17:27.00 |  3:29.00 |  78525 |  94199
  26.       7 | 20:56.00 |  3:08.00 |  94200 | 108299
  27.       8 | 24:04.00 |  3:23.00 | 108300 | 123524
  28.       9 | 27:27.00 |  4:02.00 | 123525 | 141674
  29.      10 | 31:29.00 |  3:27.00 | 141675 | 157199
  30.      11 | 34:56.00 |  3:46.00 | 157200 | 174149
  31.      12 | 38:42.00 |  4:30.00 | 174150 | 194399
  32.      13 | 43:12.00 |  2:59.00 | 194400 | 207824
  33.      14 | 46:11.00 |  3:58.00 | 207825 | 225674
  34.      15 | 50:09.00 |  2:42.00 | 225675 | 237824
  35.      16 | 52:51.00 |  3:35.00 | 237825 | 253949
  36.      17 | 56:26.00 |  3:52.00 | 253950 | 271349
  37.      18 | 60:18.00 |  5:00.00 | 271350 | 293849


  38. 范围状态及错误

  39. 已选择范围

  40.      文件名 D:\木村好夫 发烧吉他天碟[6N纯银镀膜][正版CD低速原抓WAV+CUE]\hi-fire.cn.wav

  41.      峰值电平 95.3 %
  42.      抓取速度 3.3 X
  43.      范围质量 100.0 %
  44.      复制 CRC AF64D924
  45.      复制成功

  46. 没有错误发生

  47. 状态报告结尾

  48. ---- CUETools DB Plugin V2.1.6

  49. [CTDB TOCID: IY0xmhBNwXT6JlnhtzTrAk_XLPA-] found
  50. Submit result: IY0xmhBNwXT6JlnhtzTrAk_XLPA- has been confirmed
  51. Track | CTDB Status
  52.   1   | (3/3) Accurately ripped
  53.   2   | (3/3) Accurately ripped
  54.   3   | (3/3) Accurately ripped
  55.   4   | (3/3) Accurately ripped
  56.   5   | (3/3) Accurately ripped
  57.   6   | (3/3) Accurately ripped
  58.   7   | (3/3) Accurately ripped
  59.   8   | (3/3) Accurately ripped
  60.   9   | (3/3) Accurately ripped
  61. 10   | (3/3) Accurately ripped
  62. 11   | (3/3) Accurately ripped
  63. 12   | (3/3) Accurately ripped
  64. 13   | (3/3) Accurately ripped
  65. 14   | (3/3) Accurately ripped
  66. 15   | (3/3) Accurately ripped
  67. 16   | (3/3) Accurately ripped
  68. 17   | (3/3) Accurately ripped
  69. 18   | (3/3) Accurately ripped
复制代码
回复 支持 1 反对 0

使用道具 举报

发表于 2018-6-17 09:42:45 | 显示全部楼层
谢谢分享。。。。
回复

使用道具 举报

发表于 2018-6-17 10:11:19 | 显示全部楼层
000000000000
发表于 2018-6-17 10:30:23 | 显示全部楼层
感谢分享!
回复

使用道具 举报

发表于 2018-6-17 10:34:02 | 显示全部楼层
谢谢楼主分享好资源!
发表于 2018-6-17 10:46:03 | 显示全部楼层
弹奏风格醇厚温和,炉火纯青
发表于 2018-6-17 11:10:17 | 显示全部楼层
前排就坐。。。。。。
回复

使用道具 举报

发表于 2018-6-17 11:35:24 | 显示全部楼层
非常喜欢,谢谢分享!
发表于 2018-6-17 15:38:11 | 显示全部楼层

感谢分享!
回复

使用道具 举报

您需要登录后才可以回帖 登录 | 快速注册

本版积分规则