烧客HIFI论坛-发烧直到底,来者都是客!

 找回密码
 快速注册

QQ登录

只需一步,快速开始

查看: 10357|回复: 410

[WAV音轨] 【女子十二乐坊 Beautiful Energy/美丽能源】杰盛唱片 原版珍藏[WAV+CUE/BD]

  [复制链接]
发表于 2018-7-5 10:40:13 | 显示全部楼层 |阅读模式

马上注册,结交更多烧友,大家一起分享交流,快心快哉。

您需要 登录 才可以下载或查看,没有帐号?快速注册

x
本帖最后由 砖家 于 2018-7-15 19:25 编辑

01_副本.jpg

专辑艺人:女子十二乐坊  
专辑英文:Beautiful Energy
专辑中文:美丽能源(原版)
唱片风格:民乐炫技、发烧国粹
唱片发行:广东杰盛唱片有限公司
母带制作:星碟唱片
发行时间:2003年07月01日
专辑类别:录音室专辑
内圈编码:ISRC CN-A63-03-337-00/AJ6
资源格式:WAV+CUE

03_副本.jpg

专辑介绍:

这张是一张比较有意义的唱片,绝版!!!极具收藏意义。为什么这样说呢?此张专辑由:广东杰盛唱片有限公司在2003年7月发行,母带由星碟公司提供,原装的音效。由于版权的问题,随后被一纸上诉到上海市第一中级人民法院,此后再无发行过,而大家都明白日本的首次演奏会是在2003年08月在日本东京惠比寿开三场演奏会,全部爆满,唱片发行时间是2004年01月。

轰动乐坛劲卖200万日本冠军大碟"BeautifulEnergy”收录SMAP大热作品“世上唯一的花”、日剧“东京爱的故事”主题曲等多首未发表作品及重新编曲经典。

2001年前成立的中国内地一队女子民乐组合「女子十二乐坊」在内地赢得一致好评,横扫亚洲本乐坛,成功打入日本市场,她们利用二胡、琵琶、笛等中国乐器,演奏出融合了拉丁、爵士等西方流行音乐元素的乐章,加上创新的站立演奏方式,成功开辟出一片天空。她们于去年11月获日本的唱片公司赏识,今年首次在当地推出唱片《女子十二乐坊~BeautifulEnergy~》,在日本的Oricon大碟榜的占据No.1位置,劲卖150万张!

02_副本.jpg

专辑歌曲:

01 世上唯一的花 词: 曲:槙原敬之
02 突然发生的爱情故事("东京爱情故事"主题曲) 词: 曲:小田和正
03 如川河的流水般 词: 曲:见岳章
04 阿拉木汗 词: 曲:王落宾
05 香格里拉 词: 曲:马军
06 地上的星 词: 曲:中岛miyuwo
07 奇迹 词: 曲:梁剑峰
08 自由 词: 曲:San  turi Ethem Efendi
09 五拍(Take Five) 词: 曲:  Paul Desmond
10 紫禁城 词: 曲:梁宇恒
11 女儿梦 词: 曲:梁剑峰/田鹏
12 刘三姐词: 曲:作者不详
13 山水 词: 曲:作者不详
14 无词(No Words) 词: 曲:Andrew Lum
15 七拍 词: 曲:林海


分享链接死链反馈

友情提醒

游客,如果您要查看本帖隐藏内容请 用心回复,勿要灌水、违规,如果您想免回复、免元宝下载请加入贵宾


 楼主| 发表于 2018-7-5 10:41:33 | 显示全部楼层
  1. Exact Audio Copy V1.3 from 2. September 2016

  2. EAC 抓取日志文件从7. 五月 2018, 23:23

  3. 女子十二乐坊 / Beautiful Energy

  4. 使用驱动器  :PIONEER BD-RW   BDR-XD05   Adapter: 1  ID: 0

  5. 读取模式      : 可靠Secure
  6. 使用精确流     : 是
  7. 清空音频缓存    : 是
  8. 使用 C2 指示器 : 否

  9. 读取偏移校正:               : 0
  10. 读取 Lead-In 和 Lead-Out : 否
  11. 用静音填充抓取中丢失偏移的采样       : 是
  12. 去除首尾静音块               : 否
  13. 在CRC 计算中使用了空样本       : 是
  14. 已用接口                  : Win NT 及 2000 本地 Win32 接口

  15. 所用输出模式: : 内部 WAV 函数
  16. 样本格式    : 44.100 Hz; 16 Bit; 立体声


  17. 已抓取 CD 的 TOC

  18.      音轨 |    起始    |    长度    |  起始扇区  |  结束扇区  
  19.     --------------------------------------------
  20.       1 |  0:00.00 |  4:49.24 |      0 |  21698
  21.       2 |  4:49.24 |  5:06.24 |  21699 |  44672
  22.       3 |  9:55.48 |  4:58.05 |  44673 |  67027
  23.       4 | 14:53.53 |  3:08.14 |  67028 |  81141
  24.       5 | 18:01.67 |  4:50.06 |  81142 | 102897
  25.       6 | 22:51.73 |  5:24.08 | 102898 | 127205
  26.       7 | 28:16.06 |  2:44.70 | 127206 | 139575
  27.       8 | 31:01.01 |  4:05.16 | 139576 | 157966
  28.       9 | 35:06.17 |  2:44.51 | 157967 | 170317
  29.      10 | 37:50.68 |  4:41.05 | 170318 | 191397
  30.      11 | 42:31.73 |  5:01.72 | 191398 | 214044
  31.      12 | 47:33.70 |  4:42.35 | 214045 | 235229
  32.      13 | 52:16.30 |  5:05.58 | 235230 | 258162
  33.      14 | 57:22.13 |  4:40.17 | 258163 | 279179
  34.      15 | 62:02.30 |  4:15.01 | 279180 | 298305


  35. 范围状态及错误

  36. 已选择范围

  37.      文件名 D:\女子十二乐坊-《Beautiful.Energy.原版》专辑(整轨WAV+CUE)\hi-fire.cn.wav

  38.      峰值电平 100.0 %
  39.      抓取速度 5.3 X
  40.      范围质量 100.0 %
  41.      复制 CRC FE2BBBFC
  42.      复制成功

  43. 没有错误发生

  44. 状态报告结尾

  45. ---- CUETools DB Plugin V2.1.6

  46. [CTDB TOCID: IYVmlNz7Sg0reRuZU0MWlxU10Tg-] found
  47. Submit result: already submitted
  48. Track | CTDB Status
  49.   1   | (12/21) Accurately ripped
  50.   2   | (12/21) Accurately ripped
  51.   3   | (12/21) Accurately ripped
  52.   4   | (20/21) Accurately ripped
  53.   5   | (20/21) Accurately ripped
  54.   6   | (20/21) Accurately ripped
  55.   7   | (20/21) Accurately ripped
  56.   8   | (20/21) Accurately ripped
  57.   9   | (20/21) Accurately ripped
  58. 10   | (18/21) Accurately ripped
  59. 11   | (18/21) Accurately ripped
  60. 12   | (18/21) Accurately ripped
  61. 13   | (18/21) Accurately ripped
  62. 14   | (18/21) Accurately ripped
  63. 15   | (18/21) Accurately ripped
复制代码
发表于 2018-7-5 11:07:19 | 显示全部楼层
收下听下好多谢分享!
发表于 2018-7-5 11:57:53 | 显示全部楼层
谢谢分享了
发表于 2018-7-5 12:29:16 | 显示全部楼层
这个可以下载收藏了!!
发表于 2018-7-5 12:30:13 | 显示全部楼层
谢谢分享!!!!!!!!!!
回复

使用道具 举报

发表于 2018-7-5 12:35:55 | 显示全部楼层
感谢楼主无私分享
发表于 2018-7-5 12:39:54 | 显示全部楼层
谢谢分享!
回复

使用道具 举报

发表于 2018-7-5 12:53:20 | 显示全部楼层
谢谢分享!
回复

使用道具 举报

发表于 2018-7-5 13:08:05 | 显示全部楼层
谢谢楼主分享
您需要登录后才可以回帖 登录 | 快速注册

本版积分规则