烧客HIFI论坛-发烧直到底,来者都是客!

 找回密码
 快速注册

QQ登录

只需一步,快速开始

查看: 4885|回复: 148

[WAV音轨] 【妙音群星 绝对发烧19 DSD】一张HIFI音乐示范监听必备天碟[WAV+CUE/BD]

  [复制链接]
发表于 2018-10-4 20:10:45 | 显示全部楼层 |阅读模式

马上注册,结交更多烧友,大家一起分享交流,快心快哉。

您需要 登录 才可以下载或查看,没有帐号?快速注册

x
IMG_20181003_193146.jpg
IMG_20181003_193322_BURST002.jpg
IMG_20181003_193254.jpg
IMG_20181003_193211.jpg

专辑名称:绝对发烧19
专辑艺人:群星
专辑版本:DSD
唱片制作:妙音唱片
唱片风格:发烧人声合集
发行公司:广州市妙音文化传播有限公司
唱片出版:九洲音像出版公司
出版日期:2017年2月
ISBN:978-7-7985-0885-7
资源格式:WAV+CUE
资源出处:千年老三原抓


制作群

编曲:钟春阳/唐浩文/卓子/吴鹏/旷臣/蔡领/董建利/四通/熊光焰/李闵
吉他:明仔/牛渡
大提琴:高志坚/叶辉/于萍
小提琴:张毅
长笛:李娟
竹笛/箫:毛瑾煦/伍国忠
古筝:付娜/何莹
琵琶:缪晓铮
二胡:黄江琴
伴唱:妙音合唱团
合成:梅子
策划/制作:SUNNY
平面创意:伟人设计
文案:李伟 Levi




前言

音乐,我喜欢,我快乐,我们每个人都是一个音乐作家 !人生也是一部乐典,只是不同的人生谱写的音符,旋律有所不同,或者阳春白雪,或者下里巴人... ..只要谱写音乐的人自己能够乐得其中,那就是这部乐典的成功!

美好的旋律人人都喜欢,当我们喜欢某个音乐时,其实是音乐激发起了我们心底沉淀已久的一些东西。爱这首音乐,其实也是在关注自己。让思绪沉污在飘渺无际的旋律里,洗涤心灵沾染上的粒粒尘埃!

思维活跃的人,其实大都喜欢孤独的时刻,因为只有这时候才能和自己的心灵对话,音乐其实只是载体而已,你是在找寻音乐中的大我!一起来聆听这张制作精良的人声发烧专辑 ,追忆逝去的动人时分,珍藏永不变质的歌声。 男女歌手感性动人的嗓音 ,用情至真至深,唱功一流,变化多端的演绎,配合生动开扬的音效,音质干净饱满,音乐的细微起伏天衣无缝,定位精准。

一首首令 人陶醉隽永的歌曲,感受音乐的干娇百媚与神韵。
HIFI音乐示范监听必备天碟。

                                                                                                                     一一广州市妙音文化传播有限公司



专辑曲目:


01.望月怕团圆
02.啼笑姻缘
03.水中月梦中花
04.九儿
05.马兰花
06.柴米油盐酱醋茶
07.倩影
08.红蔷薇
09.人面桃花
10.月光光
11.不爱胭脂爱乾坤
12.秋夜
13.木兰情
14.Donna Donna 多娜多娜


分享链接死链反馈

友情提醒

游客,如果您要查看本帖隐藏内容请 用心回复,勿要灌水、违规,如果您想免回复、免元宝下载请加入贵宾



PS:下面附上妙音历年的绝对发烧系列,绝对是发烧的精华
 楼主| 发表于 2018-10-4 20:10:46 | 显示全部楼层
  1. Exact Audio Copy V1.3 from 2. September 2016

  2. EAC 抓取日志文件从3. 十月 2018, 17:45

  3. 群星 / 绝对发烧19

  4. 使用驱动器  :MATSHITADVD-RAM UJ8C0   Adapter: 1  ID: 0

  5. 读取模式 : 暴发

  6. 读取偏移校正:               : 0
  7. 读取 Lead-In 和 Lead-Out : 否
  8. 用静音填充抓取中丢失偏移的采样       : 是
  9. 去除首尾静音块               : 否
  10. 在CRC 计算中使用了空样本       : 是
  11. 已用接口                  : Win NT 及 2000 本地 Win32 接口

  12. 所用输出模式: : 内部 WAV 函数
  13. 样本格式    : 44.100 Hz; 16 Bit; 立体声


  14. 已抓取 CD 的 TOC

  15.      音轨 |    起始    |    长度    |  起始扇区  |  结束扇区  
  16.     --------------------------------------------
  17.       1 |  0:00.00 |  4:08.48 |      0 |  18647
  18.       2 |  4:08.48 |  4:21.71 |  18648 |  38293
  19.       3 |  8:30.44 |  4:45.11 |  38294 |  59679
  20.       4 | 13:15.55 |  5:11.00 |  59680 |  83004
  21.       5 | 18:26.55 |  4:58.68 |  83005 | 105422
  22.       6 | 23:25.48 |  5:15.57 | 105423 | 129104
  23.       7 | 28:41.30 |  3:24.05 | 129105 | 144409
  24.       8 | 32:05.35 |  4:58.17 | 144410 | 166776
  25.       9 | 37:03.52 |  5:07.31 | 166777 | 189832
  26.      10 | 42:11.08 |  5:30.62 | 189833 | 214644
  27.      11 | 47:41.70 |  5:06.63 | 214645 | 237657
  28.      12 | 52:48.58 |  3:45.11 | 237658 | 254543
  29.      13 | 56:33.69 |  5:03.35 | 254544 | 277303
  30.      14 | 61:37.29 |  4:04.26 | 277304 | 295629


  31. 范围状态及错误

  32. 已选择范围

  33.      文件名 C:\Users\Administrator\Desktop\【妙音唱片 绝对发烧19 DSD】WAV+CUE\群星 - 绝对发烧19.wav

  34.      计时问题 0:01:52
  35.      计时问题 0:02:06
  36.      计时问题 0:02:13
  37.      计时问题 0:02:23

  38.      峰值电平 100.0 %
  39.      抓取速度 13.3 X
  40.      复制 CRC E0D96573
  41.      复制结束

  42. 没有错误发生

  43. 状态报告结尾

  44. ---- CUETools DB Plugin V2.1.6

  45. [CTDB TOCID: 2QBFYeDBp.F.fs9nyMoLcBtG3Ak-] found
  46. Submit result: 2QBFYeDBp.F.fs9nyMoLcBtG3Ak- has been confirmed
  47. Track | CTDB Status
  48.   1   | (3/3) Accurately ripped
  49.   2   | (3/3) Accurately ripped
  50.   3   | (3/3) Accurately ripped
  51.   4   | (3/3) Accurately ripped
  52.   5   | (3/3) Accurately ripped
  53.   6   | (3/3) Accurately ripped
  54.   7   | (3/3) Accurately ripped
  55.   8   | (3/3) Accurately ripped
  56.   9   | (3/3) Accurately ripped
  57. 10   | (3/3) Accurately ripped
  58. 11   | (3/3) Accurately ripped
  59. 12   | (3/3) Accurately ripped
  60. 13   | (3/3) Accurately ripped
  61. 14   | (3/3) Accurately ripped
复制代码
发表于 2018-10-4 20:16:52 | 显示全部楼层
谢谢楼主分享,谢谢好人
发表于 2018-10-4 20:49:53 | 显示全部楼层
谢谢楼主分享,几点发烧
发表于 2018-10-4 21:43:56 | 显示全部楼层
下载试听下,谢谢分享。
发表于 2018-10-4 21:45:02 | 显示全部楼层
谢谢分享谢谢不错
发表于 2018-10-4 21:59:56 | 显示全部楼层
谢谢楼主分享
发表于 2018-10-4 22:10:44 | 显示全部楼层
好歌好音质。。。谢谢分享
发表于 2018-10-4 22:19:37 | 显示全部楼层
感谢分享!!!!
回复

使用道具 举报

发表于 2018-10-4 22:36:00 | 显示全部楼层
谢谢分享。好听极了
您需要登录后才可以回帖 登录 | 快速注册

本版积分规则