烧客HIFI论坛-发烧直到底,来者都是客!

 找回密码
 快速注册

QQ登录

只需一步,快速开始

查看: 3037|回复: 75

[WAV音轨] 【陈明真 醇经典】环球授权 天凯唱片正版发行 千年老三原抓[WAV+CUE/BD]

  [复制链接]
发表于 2018-10-22 12:11:10 | 显示全部楼层 |阅读模式

马上注册,结交更多烧友,大家一起分享交流,快心快哉。

您需要 登录 才可以下载或查看,没有帐号?快速注册

x
1.jpg
3.jpg
2.jpg

专辑名称:醇经典
专辑艺人:陈明真
唱片风格:流行、怀旧
专辑授权:环球唱片有限公司版权提供
出版公司:珠影白天鹅音像出版社
专辑发行:广东天凯唱片
专辑策划:白天鹅文化 中凯文化
发行时间:2005年06月10日
资源类型:WAV+CUE


                               
登录/注册后可看大图


专辑简介:

专辑内所有歌曲之母带经由[PHILIPS SA-DC泛亚录音中心]制作。
环球历年经典靓歌,首首情牵,曲曲动听。魅力之作无法抗拒,超值珍藏切勿错过。
收录陈明真经典情歌14首,包括:《我用自己的方式爱你》、《背心》、《变心的翅膀》等,
经典年代见证乐坛光辉成就,忆起当年无尽往事,重拾经典难忘金曲。
老歌仍像一杯陈年的酒,在不经意间品尝另有一种滋味。
好歌如醇,愈久弥笃。

专辑曲目:

01 背心
02 变心的翅膀
03 百万个吻
04 我用自己的方式爱你
05 爱一个人等人爱上孤独
06 大红灯笼高高挂
07 为爱笑着流泪
08 爱情的痕迹
09 写给爱人的歌
10 不怕黑夜不怕醉
11 念念不忘的情人
12.到哪里找那么好的人


友情提醒

百度分享链接

游客,如果您要查看本帖隐藏内容请 用心回复,勿要灌水、违规,如果您想免回复、免元宝下载请加入贵宾
 楼主| 发表于 2018-10-22 12:11:11 | 显示全部楼层
  1. Exact Audio Copy V1.3 from 2. September 2016

  2. EAC 抓取日志文件从16. 十月 2018, 17:27

  3. 未知艺术家 / 未知标题

  4. 使用驱动器  :MATSHITADVD-RAM UJ8C0   Adapter: 1  ID: 0

  5. 读取模式 : 暴发

  6. 读取偏移校正:               : 0
  7. 读取 Lead-In 和 Lead-Out : 否
  8. 用静音填充抓取中丢失偏移的采样       : 是
  9. 去除首尾静音块               : 否
  10. 在CRC 计算中使用了空样本       : 是
  11. 已用接口                  : Win NT 及 2000 本地 Win32 接口

  12. 所用输出模式: : 内部 WAV 函数
  13. 样本格式    : 44.100 Hz; 16 Bit; 立体声


  14. 已抓取 CD 的 TOC

  15.      音轨 |    起始    |    长度    |  起始扇区  |  结束扇区  
  16.     --------------------------------------------
  17.       1 |  0:00.00 |  4:09.58 |      0 |  18732
  18.       2 |  4:09.58 |  4:18.37 |  18733 |  38119
  19.       3 |  8:28.20 |  4:20.32 |  38120 |  57651
  20.       4 | 12:48.52 |  4:49.14 |  57652 |  79340
  21.       5 | 17:37.66 |  4:11.02 |  79341 |  98167
  22.       6 | 21:48.68 |  3:24.29 |  98168 | 113496
  23.       7 | 25:13.22 |  3:45.30 | 113497 | 130401
  24.       8 | 28:58.52 |  3:56.40 | 130402 | 148141
  25.       9 | 32:55.17 |  3:41.41 | 148142 | 164757
  26.      10 | 36:36.58 |  4:11.54 | 164758 | 183636
  27.      11 | 40:48.37 |  5:09.62 | 183637 | 206873
  28.      12 | 45:58.24 |  4:08.72 | 206874 | 225545


  29. 范围状态及错误

  30. 已选择范围

  31.      文件名 C:\Users\Administrator\Desktop\【陈明真 醇金典】天凯正版发行[WAV+CUE]\未知艺术家 - 未知标题.wav

  32.      计时问题 0:01:29

  33.      峰值电平 100.0 %
  34.      抓取速度 13.0 X
  35.      复制 CRC E8D18864
  36.      复制结束

  37. 没有错误发生

  38. 状态报告结尾

  39. ---- CUETools DB Plugin V2.1.6

  40. [CTDB TOCID: lJ0WOdWrFfliohoXPpb.hEOh0SE-] found
  41. Submit result: lJ0WOdWrFfliohoXPpb.hEOh0SE- has been confirmed
  42. Track | CTDB Status
  43.   1   | (9/9) Accurately ripped
  44.   2   | (9/9) Accurately ripped
  45.   3   | (9/9) Accurately ripped
  46.   4   | (9/9) Accurately ripped
  47.   5   | (9/9) Accurately ripped
  48.   6   | (9/9) Accurately ripped
  49.   7   | (9/9) Accurately ripped
  50.   8   | (9/9) Accurately ripped
  51.   9   | (9/9) Accurately ripped
  52. 10   | (9/9) Accurately ripped
  53. 11   | (9/9) Accurately ripped
  54. 12   | (9/9) Accurately ripped
复制代码
发表于 2018-10-22 12:37:11 | 显示全部楼层
谢谢分享。。。。。。
回复

使用道具 举报

发表于 2018-10-22 13:33:58 | 显示全部楼层
感谢分享!!
回复

使用道具 举报

发表于 2018-10-22 14:09:54 | 显示全部楼层
感谢分享!!
回复

使用道具 举报

发表于 2018-10-22 14:56:17 | 显示全部楼层
感谢分享!!
回复

使用道具 举报

发表于 2018-10-22 15:05:53 | 显示全部楼层
老歌仍像一杯陈年的酒
发表于 2018-10-22 16:13:56 | 显示全部楼层
好音乐,好声音,好分享
发表于 2018-10-22 17:00:25 | 显示全部楼层
谢谢分享
回复

使用道具 举报

发表于 2018-10-22 19:01:55 | 显示全部楼层
经典歌曲,好听,谢谢分享。
您需要登录后才可以回帖 登录 | 快速注册

本版积分规则