烧客音乐论坛-发烧直到底,来者都是客!

 找回密码
 快速注册

QQ登录

只需一步,快速开始

查看: 58|回复: 11

[WAV音轨] 【群星 歌声伴随您(精品老歌全收藏)第19集】太平洋影音[WAV+CUE/BD] [复制链接]

发表于 7 天前 | 显示全部楼层 |阅读模式

马上注册,结交更多烧友,大家一起分享交流,快心快哉。

您需要 登录 才可以下载或查看,没有帐号?快速注册

x
本帖最后由 砖家 于 2019-2-11 18:18 编辑

19.jpg

专辑名称:歌声伴随您(精品老歌全收藏)第十九集
演唱艺人:群星
出 版 社:太平洋影音公司
封面设计:广东环球之星
专辑产地:大陆
发行时间:2008年
专辑格式:WAV无损

专辑介绍:

2008年,是中国改革开放30周年。在我们的记忆中,有太多太多难忘的歌声,伴随我们一同走过那段激情燃烧的岁月,并一同见证改革开放30年所有经历的风风雨雨。
这些歌声让我们难以忘却,给我们打开一扇记忆之门——发掘已经被时间深埋的记忆,那是你我心灵共同收藏。
歌声是一个民族心灵的写真,歌声拆射时代,记录生活。翻开伴随中国改革开放30年歌曲创作的篇章,不难发现,一条清晰可见的时代脉络贯穿始终。那就是——在心灵深处激荡的歌声总是与时代同行,与百姓生活共进。
回首中国改革开放的30年,太多的歌声,激荡在你我的心间。那些流淌的歌声,足以让我们产生心底的共鸣。可以这么说,这些歌声如果汇聚在一起,那就是一部中国改革开放30年的音乐交响史诗。它的每一个乐章,都镌刻着我们共同的成长。
《歌声伴随你》所精选的歌曲,都是改革开放30年来流传甚广,传唱久远的优秀作品。这些歌曲以其独特的音乐禀性与风格,提供了语言与文字所不能企及的历史,塑造一个伟大时代的节拍,记录了中国与春天同行的共同心跳。
从音乐出发,去寻觅时代的方向。就让歌声伴随我们,一同走过30年的激情岁月,一起开创更加美好的明天。

  TRACK 01 AUDIO
    TITLE "千重山万重水"
    INDEX 01 00:00:00
  TRACK 02 AUDIO
    TITLE "万水千山总是情"
    INDEX 01 03:18:23
  TRACK 03 AUDIO
    TITLE "节日电话"
    INDEX 01 06:59:00
  TRACK 04 AUDIO
    TITLE "轻轻的告诉你"
    INDEX 01 12:08:25
  TRACK 05 AUDIO
    TITLE "涛声依旧"
    INDEX 01 16:46:44
  TRACK 06 AUDIO
    TITLE "青春女兵"
    INDEX 01 21:18:35
  TRACK 07 AUDIO
    TITLE "绿歌"
    INDEX 01 25:29:74
  TRACK 08 AUDIO
    TITLE "大江南"
    INDEX 01 28:38:16
  TRACK 09 AUDIO
    TITLE "唱脸谱"
    INDEX 01 33:02:68
  TRACK 10 AUDIO
    TITLE "年轻的心"
    INDEX 01 36:50:02
  TRACK 11 AUDIO
    TITLE "上善若水"
    INDEX 01 39:09:51
  TRACK 12 AUDIO
    TITLE "枉凝眉"
    INDEX 01 44:35:33
  TRACK 13 AUDIO
    TITLE "莫愁啊,莫愁"
    INDEX 01 47:12:40
  TRACK 14 AUDIO
    TITLE "望故乡"
    INDEX 01 49:05:33
  TRACK 15 AUDIO
    TITLE "祝酒歌"
    INDEX 01 53:39:70


分享链接死链反馈

友情提醒

游客,如果您要查看本帖隐藏内容请 用心回复,勿要灌水、违规,如果您想免回复、免元宝下载请加入贵宾
发表于 6 天前 | 显示全部楼层
谢谢分享!!!!
发表于 6 天前 | 显示全部楼层
都是经典老歌!下载收藏了! 谢谢分享!
发表于 5 天前 | 显示全部楼层
感谢分享,楼主辛苦~!!!
发表于 5 天前 | 显示全部楼层
谢谢分享美妙音乐!
发表于 5 天前 | 显示全部楼层
经典歌曲,百听不厌。谢谢分享。
发表于 5 天前 | 显示全部楼层
感谢分享!!
回复

使用道具 举报

发表于 5 天前 | 显示全部楼层
经典老歌!下载收藏了!感谢
发表于 4 天前 | 显示全部楼层
谢谢楼主分享
发表于 4 天前 | 显示全部楼层
感谢分享,楼主辛苦~!!!
您需要登录后才可以回帖 登录 | 快速注册

本版积分规则

快速回复 返回顶部 返回列表