烧客HIFI论坛-发烧直到底,来者都是客!

 找回密码
 快速注册

QQ登录

只需一步,快速开始

查看: 992|回复: 69

[WAV音轨] 【周惠 不被遗忘的时光】华研国际 复刻美好年代 重温花样年华[WAV+CUE/双通]

[复制链接]
发表于 2019-4-10 19:05:45 | 显示全部楼层 |阅读模式

马上注册,结交更多烧友,大家一起分享交流,快心快哉。

您需要 登录 才可以下载或查看,没有帐号?快速注册

x
COVER_副本.jpg

专辑名称:不被遗忘的时光
歌手名称:周蕙
唱片风格:流行
制作发行:华研国际
发行日期:2018年07月20日
专辑语言:国语
资源格式:WAV+CUE

001_副本.jpg

专辑介绍:

复刻美好年代 重温花样年华
周蕙【不被遗忘的时光】
7 月20号复古怀旧新作经典再生

周蕙,沉静五年,走遍世界、细品生活、乐于分享,她的空灵美声在每个人心中驻足,今夏她将再度以美声伴你我将时光倒转,找回过去和未来每段【不被遗忘的时光】。

「献给走过那段黄金岁月的每一个人。」-周蕙

 跨时代美声歌女致敬黄金年代不朽殿堂金曲 

「不被遗忘的时光」收录60-80年代十位歌姬作品,包含邓丽君、凤飞飞、姚苏蓉、欧阳菲菲、甄妮、张琍敏、黄莺莺、陈秋霞、蔡琴、苏芮。曲风及唱腔融合新旧、翻玩经典,周蕙以空灵的嗓音点亮旧时代经典,也创造新时代记忆。为跳脱原曲印象,周蕙在编曲的讨论与唱腔上花费心思,「不被遗忘的时光」是出道以来周蕙自认难度最高的一张专辑。

金奖音乐团队推陈出新 翻转时代再推新颖风潮

金曲团队打造翻玩时代的音乐浪潮,由王治平、Martin Tang、温奕哲、苏珮卿、张祖诚等优秀音乐人团队,网罗40年期间经典音乐元素,融合再制多元音乐曲风,呈现周蕙声线风情万种样态。有优雅的爵士风情、俏皮的雷鬼风格更有神秘的拉丁情怀,颠覆周蕙既有形象,开创全新音乐格局。「今天不回家」一曲更首次与MATZKA合作,将金曲融入RAP元素,以时代动感风格延续经典的生命力。

跨世代时尚造型及摄影设计团队勾勒古典优雅气息 

时尚大师陈孙华以简单亮眼的色块搭配,打造复古新潮造型,周蕙更剪去10年长发,以全新造型亮丽登场。专辑封面摄影则与连续三年获国际iPhone年度摄影奖的新世代摄影师、艺术家章洁合作,结合老物家具与复古造型,在专辑封面与《被遗忘的时光》音乐录影带上创造新话题。专辑装帧则结合复古概念,以书衣、老照片等元素回味旧时代的美好感受。

005_副本.jpg

专辑曲目:

01偶然 At Times 04:14
02梦不到你 Dream Without You 04:49
03再看我一眼 Eyes on Me 03:04
04爱的路上我和你 Loving on the Road 03:03
05海誓山盟 Solemn Pledge of Love 03:27
06千言万语 A Thousand Words 04:44
07今天不回家 (feat. Matzka) Not Going Home 03:25
08爱你在心口难开 More Than I Can Say 03:15
09心痛的感觉 Heart Broken 04:54
10被遗忘的时光 A Beautiful Lost Time 04:15

友情提醒

百度分享链接

游客,如果您要查看本帖隐藏内容请 用心回复,勿要灌水、违规,如果您想免回复、免元宝下载请加入贵宾


 楼主| 发表于 2019-4-10 19:05:46 | 显示全部楼层
  1. Exact Audio Copy V1.3 from 2. September 2016

  2. EAC 抓取日志文件从22. 十一月 2018, 18:01

  3. 周蕙 / 不被遺忘的時光

  4. 使用驱动器  :TSSTcorpCDDVDW SE-218BB   Adapter: 1  ID: 2

  5. 读取模式      : 可靠Secure
  6. 使用精确流     : 是
  7. 清空音频缓存    : 是
  8. 使用 C2 指示器 : 否

  9. 读取偏移校正:               : 0
  10. 读取 Lead-In 和 Lead-Out : 否
  11. 用静音填充抓取中丢失偏移的采样       : 是
  12. 去除首尾静音块               : 否
  13. 在CRC 计算中使用了空样本       : 是
  14. 已用接口                  : Win NT 及 2000 本地 Win32 接口

  15. 所用输出模式: : 内部 WAV 函数
  16. 样本格式    : 44.100 Hz; 16 Bit; 立体声


  17. 已抓取 CD 的 TOC

  18.      音轨 |    起始    |    长度    |  起始扇区  |  结束扇区  
  19.     --------------------------------------------
  20.       1 |  0:00.00 |  4:11.60 |      0 |  18884
  21.       2 |  4:11.60 |  4:44.60 |  18885 |  40244
  22.       3 |  8:56.45 |  3:02.22 |  40245 |  53916
  23.       4 | 11:58.67 |  3:01.00 |  53917 |  67491
  24.       5 | 14:59.67 |  3:23.72 |  67492 |  82788
  25.       6 | 18:23.64 |  4:40.27 |  82789 | 103815
  26.       7 | 23:04.16 |  3:21.38 | 103816 | 118928
  27.       8 | 26:25.54 |  3:14.48 | 118929 | 133526
  28.       9 | 29:40.27 |  4:53.16 | 133527 | 155517
  29.      10 | 34:33.43 |  4:13.70 | 155518 | 174562


  30. 范围状态及错误

  31. 已选择范围

  32.      文件名 C:\Users\Administrator\Desktop\周蕙-不被遺忘的時光[臺灣][2018][華研國際][HIM2147A1].wav

  33.      峰值电平 100.0 %
  34.      抓取速度 1.5 X
  35.      范围质量 100.0 %
  36.      测试 CRC 1491E3D8
  37.      复制 CRC 1491E3D8
  38.      复制成功

  39. 没有错误发生

  40. 状态报告结尾

  41. ---- CUETools DB Plugin V2.1.6

  42. [CTDB TOCID: 1PEISeRuYUIbit7nADg5Jd6uNgs-] found
  43. Submit result: 1PEISeRuYUIbit7nADg5Jd6uNgs- has been confirmed
  44. Track | CTDB Status
  45.   1   | (11/11) Accurately ripped
  46.   2   | (11/11) Accurately ripped
  47.   3   | (11/11) Accurately ripped
  48.   4   | (11/11) Accurately ripped
  49.   5   | (11/11) Accurately ripped
  50.   6   | (11/11) Accurately ripped
  51.   7   | (11/11) Accurately ripped
  52.   8   | (11/11) Accurately ripped
  53.   9   | (11/11) Accurately ripped
  54. 10   | (11/11) Accurately ripped
复制代码
发表于 2019-4-10 19:18:07 | 显示全部楼层
谢谢分享!
回复

使用道具 举报

发表于 2019-4-10 19:41:53 | 显示全部楼层
谢谢楼主分享
发表于 2019-4-10 19:41:53 | 显示全部楼层
非常感谢
发表于 2019-4-10 19:42:02 | 显示全部楼层
谢谢,分享!
发表于 2019-4-10 19:44:52 | 显示全部楼层
为什么试听没有,不过我还是下下来看看
发表于 2019-4-10 20:08:01 | 显示全部楼层
下载试听下,谢谢分享!!
发表于 2019-4-10 20:08:01 | 显示全部楼层
谢谢分享
发表于 2019-4-10 20:09:12 | 显示全部楼层
感谢分享
您需要登录后才可以回帖 登录 | 快速注册

本版积分规则