烧客HIFI论坛-发烧直到底,来者都是客!

 找回密码
 快速注册

QQ登录

只需一步,快速开始

查看: 2056|回复: 125

[WAV音轨] 【红音堂唱片 FIHI吉他王 SQCD】吉他史上一次真实自然录音[WAV+CUE/双通]

  [复制链接]
发表于 2019-4-21 21:13:29 | 显示全部楼层 |阅读模式

马上注册,结交更多烧友,大家一起分享交流,快心快哉。

您需要 登录 才可以下载或查看,没有帐号?快速注册

x
本帖最后由 砖家 于 2019-4-21 21:30 编辑

专辑名称:FIHI吉他王
专辑版本:SQCD
专辑艺人:群星
发行公司:红音堂(国际)唱片
唱片风格:发烧器乐
出版公司:广州市新时代影音公司
ISRC:CN-F21-10-0014-0/A.J6
发行时间:2011年12月
资源类型:WAV+CUE


cover_副本.jpg


专辑简介:

吉他史上一次具代表性的真实录音,采用七支专业顶级麦克风录制
再现高水平的临场感 演奏生猛活泼 音乐温暖 动态十足 旋律优美动听 全碟在加拿大录制

SQCD(Super Quality Compact Disc)由3M音频技术联合日本Memory-Tech株式会社在中国的上海联合光盘有限公司研发的紫银合金的银合金压盘技术,推出的最新超级音质CD,音质比传统的普通CD有巨大飞越,采用高清音频母带处理系统进行数字修复、模拟拓展、无损平衡输出等多项技术加工,最真实还原录音室的原始效果。通过紫银合金的精密印制,极大减少了普通CD丢码、误码的确定,增加了音频的密度与厚度,音质达到了接近原始音乐母带的完美的再现。



专辑曲目:

01.秋之偶遇

02.爱的罗曼史
03.情感
04.叶赛尼亚
05.回家
06.水边的阿狄尼娜
07.史城展览会
08.故乡之路
09.温柔地爱我
10.丝绸之路


友情提醒

百度分享链接

游客,如果您要查看本帖隐藏内容请 用心回复,勿要灌水、违规,如果您想免回复、免元宝下载请加入贵宾

 楼主| 发表于 2019-4-21 21:13:30 | 显示全部楼层
  1. Exact Audio Copy V1.0 beta 3 from 29. August 2011

  2. EAC 抓取日志文件从21. 十二月 2011, 15:12

  3. 未知艺术家 / 未知标题

  4. 使用驱动器  :MATSHITADVD-RAM UJ8A2AS   Adapter: 0  ID: 1

  5. 读取模式      : 可靠Secure
  6. 使用精确流     : 是
  7. 清空音频缓存    : 否
  8. 使用 C2 指示器 : 否

  9. 组合读写偏移校正:             : 0
  10. 读取 Lead-In 和 Lead-Out : 否
  11. 用静音填充抓取中丢失偏移的采样       : 是
  12. 去除首尾静音块               : 否
  13. 在CRC 计算中使用了空样本       : 是
  14. 已用接口                  : Win NT 及 2000 本地 Win32 接口

  15. 所用输出模式: : 内部 WAV 函数
  16. 样本格式    : 44.100 Hz; 16 Bit; 立体声


  17. 已抓取 CD 的 TOC

  18.      音轨 |    起始    |    长度    |  起始扇区  |  结束扇区  
  19.     --------------------------------------------
  20.       1 |  0:00.00 |  3:10.47 |      0 |  14296
  21.       2 |  3:10.47 |  3:01.70 |  14297 |  27941
  22.       3 |  6:12.42 |  4:13.01 |  27942 |  46917
  23.       4 | 10:25.43 |  3:24.28 |  46918 |  62245
  24.       5 | 13:49.71 |  2:29.51 |  62246 |  73471
  25.       6 | 16:19.47 |  2:37.00 |  73472 |  85246
  26.       7 | 18:56.47 |  3:47.33 |  85247 | 102304
  27.       8 | 22:44.05 |  3:34.52 | 102305 | 118406
  28.       9 | 26:18.57 |  4:34.59 | 118407 | 139015
  29.      10 | 30:53.41 |  4:17.31 | 139016 | 158321


  30. 范围状态及错误

  31. 已选择范围

  32.      文件名 D:\烧客音乐论坛\HIFI吉他王\FIHI吉他王.wav

  33.      峰值电平 98.8 %
  34.      抓取速度 2.8 X
  35.      范围质量 100.0 %
  36.      复制 CRC 9841F91C
  37.      复制成功

  38. 没有错误发生

  39. 状态报告结尾
复制代码
发表于 2019-4-21 21:29:06 | 显示全部楼层
名曲 喜欢,感谢楼主分享!
发表于 2019-4-21 21:30:01 | 显示全部楼层
感谢分享!!
发表于 2019-4-21 21:33:49 | 显示全部楼层
感谢,分享!
发表于 2019-4-21 21:43:07 | 显示全部楼层
楼主辛苦了!
发表于 2019-4-21 21:52:14 | 显示全部楼层
很优美的吉他曲,欣赏!
发表于 2019-4-21 22:18:39 | 显示全部楼层
感谢楼主分享!
发表于 2019-4-21 23:28:47 | 显示全部楼层
感谢楼主分享。。。。
发表于 2019-4-21 23:28:48 | 显示全部楼层
感谢分享!
您需要登录后才可以回帖 登录 | 快速注册

本版积分规则