烧客HIFI论坛-发烧直到底,来者都是客!

 找回密码
 快速注册

QQ登录

只需一步,快速开始

查看: 6477|回复: 236

[WAV音轨] 【马久越 聆听中国·精灵】天艺文化 赵聪等民乐大师精彩演绎[WAV+CUE/双通]

  [复制链接]
发表于 2019-4-25 19:47:20 | 显示全部楼层 |阅读模式

马上注册,结交更多烧友,大家一起分享交流,快心快哉。

您需要 登录 才可以下载或查看,没有帐号?快速注册

x
本帖最后由 砖家 于 2019-4-25 19:53 编辑

cover_副本.jpg

back_副本.jpg

专辑名称:马久越作品-聆听中国精灵2CD
专辑歌手:赵聪等民乐大师
音乐监制、编曲:马久越
唱片风格:发烧民乐
专辑出版:齐鲁电子音像出版社
专辑发行:天艺文化传播有限公司
ISRC编号: 9787884416448
资源格式:WAV+CUE


                               
登录/注册后可看大图


天艺唱片 马久越作品《聆听中国精灵》 DSD发烧碟2CD 正版。每首歌为保证马久越老师高品质要求,不做任何压缩,所以需要两张CD才能装得下,全新专辑《聆听中国2》里面共有两张CD,分为A、B双碟。12首作品不辞轮回,反转打磨,揉炼十年乐思,匠意铸成此碟。不插电,不渲染,众位顶级国乐演奏家倾情打造,朴心所至,金石丝竹列阵追古。

碟中作品数度巡演欧美,存得殿堂见证,今方归来,寄乐四海。《聆听中国·精灵》中的12首新作品,经过反反复复的打磨,不辞辛劳的修改,寄托着马久越老师这十年间最好的灵感,也是他用最最诚恳的匠心精神来制作的这张专辑。

整张专辑没有使用MIDI以及任何不属于中国本土的声音,系纯粹的中国民族乐器录制而成。其中,还邀请众多位顶级的中国民乐演奏家倾注了热忱和才华来打造——用音乐去契合中国古代的思想和美感。专辑中的作品已在美国及欧洲等多地巡演了多年,在各个典雅的音乐厅里得到了观众们衷心的喜爱。这些作品饱满了作者的诚意,希望这张专辑能将中国音乐的美传递给你。



DISC A


01. 精灵 07:19
02. 反弹琵琶伎乐天 07:18
03. 轮回 05:35
04. 情殇 09:13
05. 面具 05:55
06. 蜀山 06:34


DISC B


01. 胡旋舞 04:05
02. 流沙 04:14
03. 踏歌行 04:59
04. 聆听 07:06
05. 在那遥远的地方 06:03
06. 玫瑰花 04:57


友情提醒

百度分享链接无效反馈

游客,如果您要查看本帖隐藏内容请 用心回复,勿要灌水、违规,如果您想免回复、免元宝下载请加入贵宾


 楼主| 发表于 2019-4-25 19:47:32 | 显示全部楼层
  1. Exact Audio Copy V1.1 from 23. June 2015

  2. EAC 抓取日志文件从18. 三月 2019, 9:22

  3. 未知艺术家 / 未知标题

  4. 使用驱动器  :HL-DT-STDVDRAM GP75N   Adapter: 1  ID: 0

  5. 读取模式      : 可靠Secure
  6. 使用精确流     : 是
  7. 清空音频缓存    : 是
  8. 使用 C2 指示器 : 否

  9. 组合读写偏移校正:             : 0
  10. 读取 Lead-In 和 Lead-Out : 否
  11. 用静音填充抓取中丢失偏移的采样       : 是
  12. 去除首尾静音块               : 否
  13. 在CRC 计算中使用了空样本       : 是
  14. 已用接口                  : Win NT 及 2000 本地 Win32 接口

  15. 所用输出模式: : 内部 WAV 函数
  16. 样本格式    : 44.100 Hz; 16 Bit; 立体声


  17. 已抓取 CD 的 TOC

  18.      音轨 |    起始    |    长度    |  起始扇区  |  结束扇区  
  19.     --------------------------------------------
  20.       1 |  0:00.00 |  7:21.00 |      0 |  33074
  21.       2 |  7:21.00 |  7:20.04 |  33075 |  66078
  22.       3 | 14:41.04 |  5:37.04 |  66079 |  91357
  23.       4 | 20:18.08 |  9:15.38 |  91358 | 133020
  24.       5 | 29:33.46 |  5:57.47 | 133021 | 159842
  25.       6 | 35:31.18 |  6:34.70 | 159843 | 189462


  26. 范围状态及错误

  27. 已选择范围

  28.      文件名 G:\Share\烧客\未知艺术家 - 未知标题.wav

  29.      峰值电平 100.0 %
  30.      抓取速度 4.2 X
  31.      范围质量 99.9 %
  32.      复制 CRC 880A31E0
  33.      复制成功

  34. 没有错误发生

  35. 状态报告结尾

  36. ---- CUETools DB Plugin V2.1.6

  37. [CTDB TOCID: UzqdV2LbTWCC94IjZCsR3hgNKxo-] found
  38. Submit result: UzqdV2LbTWCC94IjZCsR3hgNKxo- has been confirmed
  39. Track | CTDB Status
  40.   1   | (2/2) Accurately ripped
  41.   2   | (2/2) Accurately ripped
  42.   3   | (2/2) Accurately ripped
  43.   4   | (2/2) Accurately ripped
  44.   5   | (2/2) Accurately ripped
  45.   6   | (2/2) Accurately ripped
复制代码
 楼主| 发表于 2019-4-25 19:47:46 | 显示全部楼层
  1. Exact Audio Copy V1.1 from 23. June 2015

  2. EAC 抓取日志文件从18. 三月 2019, 9:43

  3. 未知艺术家 / 未知标题

  4. 使用驱动器  :HL-DT-STDVDRAM GP75N   Adapter: 1  ID: 0

  5. 读取模式      : 可靠Secure
  6. 使用精确流     : 是
  7. 清空音频缓存    : 是
  8. 使用 C2 指示器 : 否

  9. 组合读写偏移校正:             : 0
  10. 读取 Lead-In 和 Lead-Out : 否
  11. 用静音填充抓取中丢失偏移的采样       : 是
  12. 去除首尾静音块               : 否
  13. 在CRC 计算中使用了空样本       : 是
  14. 已用接口                  : Win NT 及 2000 本地 Win32 接口

  15. 所用输出模式: : 内部 WAV 函数
  16. 样本格式    : 44.100 Hz; 16 Bit; 立体声


  17. 已抓取 CD 的 TOC

  18.      音轨 |    起始    |    长度    |  起始扇区  |  结束扇区  
  19.     --------------------------------------------
  20.       1 |  0:00.00 |  4:06.71 |      0 |  18520
  21.       2 |  4:06.71 |  4:15.56 |  18521 |  37701
  22.       3 |  8:22.52 |  5:01.17 |  37702 |  60293
  23.       4 | 13:23.69 |  7:07.62 |  60294 |  92380
  24.       5 | 20:31.56 |  6:05.15 |  92381 | 119770
  25.       6 | 26:36.71 |  4:57.30 | 119771 | 142075


  26. 范围状态及错误

  27. 已选择范围

  28.      文件名 G:\Share\烧客\CD2\未知艺术家 - 未知标题.wav

  29.      峰值电平 100.0 %
  30.      抓取速度 4.0 X
  31.      范围质量 100.0 %
  32.      复制 CRC E76C20B7
  33.      复制成功

  34. 没有错误发生

  35. 状态报告结尾

  36. ---- CUETools DB Plugin V2.1.6

  37. [CTDB TOCID: l8d1vKcccINL3EU3hc7vxbWFfX8-] found
  38. Submit result: l8d1vKcccINL3EU3hc7vxbWFfX8- has been confirmed
  39. Track | CTDB Status
  40.   1   | (2/2) Accurately ripped
  41.   2   | (2/2) Accurately ripped
  42.   3   | (2/2) Accurately ripped
  43.   4   | (2/2) Accurately ripped
  44.   5   | (2/2) Accurately ripped
  45.   6   | (2/2) Accurately ripped
复制代码
发表于 2019-4-25 19:47:46 | 显示全部楼层
谢谢分享
发表于 2019-4-25 19:49:25 | 显示全部楼层
谢谢分享!
发表于 2019-4-25 19:53:55 | 显示全部楼层
谢谢,分享!
发表于 2019-4-25 20:12:46 | 显示全部楼层
感谢分享好资源
发表于 2019-4-25 20:45:47 | 显示全部楼层
收藏欣赏,谢谢分享!
发表于 2019-4-25 20:48:00 | 显示全部楼层
感谢楼主无私分享
发表于 2019-4-25 22:02:43 | 显示全部楼层
在此谢过!
回复

使用道具 举报

您需要登录后才可以回帖 登录 | 快速注册

本版积分规则