烧客HIFI论坛-发烧直到底,来者都是客!

 找回密码
 快速注册

QQ登录

只需一步,快速开始

查看: 1273|回复: 85

[FLAC音轨] 【张毅(小提琴)天上西藏 HQCD】风林文化 梦想中的天堂之声[FLAC+CUE/双通]

[复制链接]
发表于 2019-5-9 17:19:00 | 显示全部楼层 |阅读模式

马上注册,结交更多烧友,大家一起分享交流,快心快哉。

您需要 登录 才可以下载或查看,没有帐号?快速注册

x
天上西藏 hqcd_副本.jpg

专辑名称:天上西藏
专辑英文:The Heavenly Tibet
专辑版本:HQCD
小提琴演奏:张毅
唱片风格:发烧乐器
专辑殊荣:2010年度十大发烧唱片-年度最佳小提琴演奏专辑
专辑出版:广东音像出版社
制作发行:广州市风林文化传播有限公司
I  S  R  C:CN-F18-10-373-00/A.J6
资源格式:FLAC+CUE

p26b_副本.jpg

专辑介绍:

天上西藏 梦想中的天堂

雪域高原的动听旋律
唯美抒情的音乐篇章

小提琴演奏音色优 美情感细腻 极富歌唱性





  苍苍莽莽、辽阔雄浑的青藏高原,一片让人为之神往的雪域圣地,作为“日光之城”这里是世界的屋脊,天上的西藏。这里不仅有川流不息的雅鲁藏布江,更有云天之上的喜马拉雅山;这里不仅有巍峨的布达拉宫,更有虔诚至真的信众;这里不仅有纳木错湖秀丽的倩影,更有念青唐古拉山雄伟的身姿。这片雪山高原是那么的纯净圣洁,以至于每一个第一次置身于此的生命都感受到发自灵魂深处的震撼。在这里,心灵会得到升华,灵魂会得到洗涤,得到的是一种繁华过后的风轻云淡,一份喧嚣之后的宁静淡然。也许西藏真正的美是源自于心灵,让人不禁放下那些纷乱的尘缘旧事,那些世俗的风花雪月,那些曾经有过的情怨缠绵,做一个虔诚者,双手合十,秉持圣洁的心念,一尘不染,坦荡如真。

  雪山、哈达、布达拉,酥油茶、青稞酒,格桑花静静地绽放、牛羊在这里栖息生存。生活在这里的人们,向来能歌善舞,会说话就会唱歌,会走路就会跳舞,据说你在大街上随便找一个小孩子,他都能随口唱一段动听的歌曲,高原的歌声和洁白的哈达一样纯洁,优美抒情,高亢明亮,非常具有旋律性和穿透力。西藏的歌曲不仅仅唱起来好听,通过器乐演奏出来更是别具特色,特别是弓弦类乐器——小提琴非常适合演奏这些曲目。众所周知小提琴的音域宽广,表现力强,音色优美,接近人声,非常具有歌唱性和旋律性,从它诞生的那天起,就一直在乐器中占有显著的地位,为人们所喜爱。本张专辑的小提琴演奏由广州交响乐团首席小提琴演奏家——张毅担纲,他的演奏情感细腻,张弛有度,无论从内容的表现、情感的抒发及风格的把握都恰到好处。他的演绎无论是技巧、乐感,还是情绪拿捏都彰显出鲜明的音乐个性,声音丰满,动听。音乐是一道心灵的风景,打开这扇窗户用心去品鉴,在旋律的背后依稀又见青稞灿烂,蔓青成熟,青青的牧场、洁白雪山,湛蓝的天空下牦牛奔跑……尽情领略这世间西藏、天上西藏,那个梦想中的天堂。

    ——十大发烧唱片参考来源: http://www.21hifi.com/award/2010/htm/26.htm




专辑曲目:



01. 天路 Heavenly Railway    [0:04:28.10]
02. 红雪莲 Red Snow Saussurea    [0:04:15.22]
03. 家乡 Hometown    [0:04:07.29]
04. 高原红 The Vermillion of Plateau    [0:04:34.45]
05. 天上西藏 The Heavenly Tibet    [0:04:42.05]
06. 高原蓝 The Blue of Plateau    [0:05:35.33]
07. 月光下的布达拉 The Potala Palace Under The Moonlight    [0:03:56.33]
08. 梦中的唐古拉 Tanggula Mountains in My Dream    [0:04:37.45]
09. 西藏之恋 The Love of Tibet    [0:04:00.55]
10. 青藏高原 Qinghai-Tibet Plateau    [0:04:15.13]
11. 在那东山顶上 On Top of The East Mountain    [0:03:38.43]
12. 走出喜玛拉雅 Out Of Himalayas    [0:04:01.51]


分享链接死链反馈

友情提醒

游客,如果您要查看本帖隐藏内容请 用心回复,勿要灌水、违规,如果您想免回复、免元宝下载请加入贵宾
 楼主| 发表于 2019-5-9 17:19:06 | 显示全部楼层
  1. Exact Audio Copy V0.99 prebeta 4 from 23. January 2008

  2. EAC 抓取日志文件从4. 七月 2010, 20:54

  3. 未知艺术家 / 未知标题

  4. 使用驱动器  :SONY    DVD RW DRU-800A   Adapter: 1  ID: 0

  5. 读取模式     : 保护
  6. 使用精确流   : 是
  7. 废除音频缓冲 : 是
  8. 使用 C2 指针 : 否

  9. 读取偏移校正                   : 12
  10. 读取 Lead-In 和 Lead-Out       : 否
  11. 用静音填充抓取中丢失偏移的采样 : 是
  12. 去除首尾静音块                 : 否
  13. 在 CRC 计算中使用了空样本      : 否
  14. 已用接口                       : Win NT 及 2000 本地 Win32 接口

  15. 所用输出格式 : 内部 WAV 函数
  16. 样本格式     : 44.100 Hz;16 Bit;立体声


  17. 被抓轨 CD 的 TOC

  18.      音轨 |   开始   |   长度   | 起始扇区 | 结尾扇区
  19.     --------------------------------------------------
  20.        1  |  0:00.00 |  4:28.10 |       0  |   20109  
  21.        2  |  4:28.10 |  4:15.22 |   20110  |   39256  
  22.        3  |  8:43.32 |  4:07.29 |   39257  |   57810  
  23.        4  | 12:50.61 |  4:34.45 |   57811  |   78405  
  24.        5  | 17:25.31 |  4:42.05 |   78406  |   99560  
  25.        6  | 22:07.36 |  5:35.33 |   99561  |  124718  
  26.        7  | 27:42.69 |  3:56.33 |  124719  |  142451  
  27.        8  | 31:39.27 |  4:37.45 |  142452  |  163271  
  28.        9  | 36:16.72 |  4:00.55 |  163272  |  181326  
  29.       10  | 40:17.52 |  4:15.13 |  181327  |  200464  
  30.       11  | 44:32.65 |  3:38.43 |  200465  |  216857  
  31.       12  | 48:11.33 |  4:01.51 |  216858  |  234983  


  32. 范围状态及错误

  33. 已选择范围

  34.      文件名 C:\Documents and Settings\桌面\HQ天上西藏\未知艺术家 - 未知标题.wav

  35.      峰值电平 97.8 %
  36.      范围质量 100.0 %
  37.      复制 CRC FD8D9BDA
  38.      复制成功

  39. 没有错误发生

  40. 状态报告结尾
复制代码
发表于 2019-5-9 17:22:12 | 显示全部楼层
谢谢,分享!
发表于 2019-5-9 17:31:24 | 显示全部楼层
谢谢分享!
回复

使用道具 举报

发表于 2019-5-9 18:11:39 | 显示全部楼层
谢谢谢谢谢谢谢谢
发表于 2019-5-9 18:31:53 | 显示全部楼层
楼主辛苦了!
发表于 2019-5-9 18:50:27 | 显示全部楼层
好片子,下了看看。
发表于 2019-5-9 18:50:27 | 显示全部楼层
感谢分享!
发表于 2019-5-9 18:54:16 | 显示全部楼层
下载试听下,谢谢分享。
发表于 2019-5-9 19:03:26 | 显示全部楼层
感谢分享
您需要登录后才可以回帖 登录 | 快速注册

本版积分规则