烧客音乐论坛-发烧直到底,来者都是客!

 找回密码
 快速注册

QQ登录

只需一步,快速开始

查看: 243|回复: 39

[FLAC整轨] 【童丽 烟花三月 XRCD】妙音唱片 xrcd2技术彻底重现绝世天籁[FLAC+CUE/双通]

[复制链接]
发表于 2019-5-13 08:56:18 | 显示全部楼层 |阅读模式

马上注册,结交更多烧友,大家一起分享交流,快心快哉。

您需要 登录 才可以下载或查看,没有帐号?快速注册

x
本帖最后由 砖家 于 2019-5-13 09:18 编辑
1.jpg
CD_副本.jpg
back_副本.jpg

唱片名称:烟花三月
专辑版本:XRCD2
演唱歌手:童丽
唱片编号:WMXRCD-001
唱片风格:发烧人声
唱片公司:妙音文化传播有限公司
发行日期:2007年05月
资源类型:FLAC+CUE


                               
登录/注册后可看大图

专辑简介

风行鉴听首选
惊世人声天碟 绝世歌声 靓声人寰
史上最强制作阵容 发烧质素举世无双
真切演绎都市女性内心世界 极具魅力的磁性女声 再次体现Hi-Fi境界
童丽的第一张xrcd,专辑中收录14首歌曲,录音是她所灌录过最发烧,最靓声的。
音场的立体感和透明度比原的版跨进一大步,
xrcd2技术彻底重现童丽靓绝人寰的歌声!


                               
登录/注册后可看大图

专辑曲目

01 太湖美
02 烟花三月
03 葬花吟
04 十送红军
05 失恋追想曲(原创)
06 月之故乡
07 望春风
08 武侠帝女花
09 你可知道我爱谁
10 初一到十五
11 长相依
12 山歌姻缘
13 情迷
14 春光美

分享链接死链反馈

友情提醒

游客,如果您要查看本帖隐藏内容请 用心回复,勿要灌水、违规,如果您想免回复、免元宝下载请加入贵宾

附:童丽《烟花三月》本论坛三个版本  1:1母带直刻 BSCD  XRCD
 楼主| 发表于 2019-5-13 08:56:27 | 显示全部楼层
  1. Exact Audio Copy V0.99 prebeta 5 from 4. May 2009

  2. EAC 抓取日志文件从2. 四月 2010, 19:03

  3. 未知艺术家 / 未知标题

  4. 使用驱动器  :Generic DVD-ROM   Adapter: 6  ID: 0

  5. 读取模式     : 保护
  6. 使用精确流   : 是
  7. 废除音频缓冲 : 是
  8. 使用 C2 指针 : 是

  9. 读取偏移校正                   : 0
  10. 读取 Lead-In 和 Lead-Out       : 否
  11. 用静音填充抓取中丢失偏移的采样 : 是
  12. 去除首尾静音块                 : 否
  13. 在 CRC 计算中使用了空样本      : 否
  14. 已用接口                       : Win NT 及 2000 本地 Win32 接口

  15. 所用输出格式 : 内部 WAV 函数
  16. 样本格式     : 44.100 Hz;16 Bit;立体声


  17. 被抓轨 CD 的 TOC

  18.      音轨 |   开始   |   长度   | 起始扇区 | 结尾扇区
  19.     --------------------------------------------------
  20.        1  |  0:00.00 |  3:17.55 |       0  |   14829  
  21.        2  |  3:17.55 |  4:46.65 |   14830  |   36344  
  22.        3  |  8:04.45 |  5:04.25 |   36345  |   59169  
  23.        4  | 13:08.70 |  5:45.40 |   59170  |   85084  
  24.        5  | 18:54.35 |  3:35.10 |   85085  |  101219  
  25.        6  | 22:29.45 |  5:00.72 |  101220  |  123791  
  26.        7  | 27:30.42 |  5:43.00 |  123792  |  149516  
  27.        8  | 33:13.42 |  4:05.13 |  149517  |  167904  
  28.        9  | 37:18.55 |  4:00.65 |  167905  |  185969  
  29.       10  | 41:19.45 |  4:40.10 |  185970  |  206979  
  30.       11  | 45:59.55 |  4:11.50 |  206980  |  225854  
  31.       12  | 50:11.30 |  3:17.50 |  225855  |  240679  
  32.       13  | 53:29.05 |  3:59.00 |  240680  |  258604  
  33.       14  | 57:28.05 |  5:11.70 |  258605  |  281999  


  34. 范围状态及错误

  35. 已选择范围

  36.      文件名 D:\童丽专辑\童丽-烟花三月XRCD[原抓WAV+CUE]\童丽-烟花三月XRCD.wav

  37.      峰值电平 100.0 %
  38.      范围质量 100.0 %
  39.      复制 CRC 3FEB9F01
  40.      复制成功

  41. 没有错误发生

  42. 状态报告结尾
复制代码
发表于 2019-5-13 08:56:35 | 显示全部楼层
谢谢,分享!
发表于 2019-5-13 09:01:40 | 显示全部楼层
感谢分享!
发表于 2019-5-13 09:02:27 | 显示全部楼层
楼主辛苦了!
发表于 2019-5-13 09:02:47 | 显示全部楼层
谢谢分享!
发表于 2019-5-13 09:06:25 | 显示全部楼层
感谢楼主,谢谢!!
发表于 2019-5-13 09:18:28 | 显示全部楼层
感谢分享!!
发表于 2019-5-13 09:48:44 | 显示全部楼层
感谢分享
发表于 2019-5-13 10:47:35 | 显示全部楼层
专家辛苦了,谢谢分享
您需要登录后才可以回帖 登录 | 快速注册

本版积分规则

发布主题 快速回复 返回列表 联系我们

关于我们|手机版| 烧客网|苏ICP备17021493-1号|閸溿劏顕楃广垺婀囩拠椋庡仯閸? title=

Powered by Discuz! X3.4 © 2001-2017 Comsenz Inc.

声明:本站资源来自网盘分享,仅供试听,勿作商用,请支持正版!

如果您认为本站相关页面侵权,请Email:[email protected]

快速回复 返回顶部 返回列表