烧客音乐论坛-发烧直到底,来者都是客!

 找回密码
 快速注册

QQ登录

只需一步,快速开始

查看: 374|回复: 70

[WAV音轨] 【群星 青涩雨林 HQCD】雨林唱片2019 陈健监录及母带后处理[WAV+CUE/双通]

[复制链接]
发表于 2019-5-13 09:38:38 | 显示全部楼层 |阅读模式

马上注册,结交更多烧友,大家一起分享交流,快心快哉。

您需要 登录 才可以下载或查看,没有帐号?快速注册

x
0_副本.jpg

专辑名称:青涩雨林
专辑版本:HQCD
专辑艺人:群星
唱片风格:发烧人声
出版公司:广东音像出版社有限公司
制作公司:雨林音像制作有限公司
ISBN:9787798418989
发行时间:2019年
资源格式:WAV+CUE

Back_副本.jpg

CD_副本.jpg

专辑简介


雨林唱片《青涩雨林》陈洁丽、八只眼、青燕子早期录音精髓HQCD正版

《青涩雨林》制作后感

         这张《青涩雨林》的策划历时一年有余,选曲方面挺费心思,要选入一些大家平时不太留意的、沧海遗珠的作品。如第一首“白云故乡”是原创曲目,当年发烧名家马濬先生十分喜欢这首歌曲,选入了他的《亚太之声》发烧专辑中,这十六首歌曲有相当一部分是纯模拟开盘带录制,如何能在近期雨林唱片颇受好评的SAP超级模拟处理器都能处理得好声实为不易。所有曲目录制于1999年至2003年,是我录音、监制生涯的黄金时期。当我做好最后一首歌曲的母带处理后,还是感概万分的——我看到年轻时还背着书包的稚嫩的陈洁丽;青春少女组合青燕子;风华正茂、全盛时期的八只眼男声四重唱。当然也看到比现在年轻的我,当年怀揣一颗雄心,不知天高地厚、义无反顾地全情投入发烧唱片制作中,寻求音乐与录音的真谛,那时对音乐策划、音乐监制、录音合成的投入,今天回想起来就像“录音痴”一样。
      时光飞逝,转眼就是近二十余年,然而音乐是永恒的。感恩发烧友对“雨林音乐”这么多年的喜爱和支持,让我们尽最大的努力,用最好的设备、最成熟的技术处理、把那些年的音乐重新“耳目一新”呈现给大家,与大家共同分享。



                                                                                                                                                      ----- 陈健



专辑曲目

01.白云的故乡
02.挂念
03.达板城的姑娘
04.白毛女
05.出航
06.同一首歌
07.三百六十五里路
08.采蘑菇的小姑娘
09.东方之珠
10.哦!苏珊娜
11.青叶城之恋
12.听妈妈讲那过去的事
13.荒城之月
14.即使青春美丽已消逝
15.森吉得玛
16.好朋友


分享链接死链反馈

友情提醒

游客,如果您要查看本帖隐藏内容请 用心回复,勿要灌水、违规,如果您想免回复、免元宝下载请加入贵宾
 楼主| 发表于 2019-5-13 09:38:48 | 显示全部楼层
  1. Exact Audio Copy V1.1 from 23. June 2015

  2. EAC 抓取日志文件从25. 四月 2019, 10:16

  3. 未知艺术家 / 未知标题

  4. 使用驱动器  :HL-DT-STDVDRAM GP75N   Adapter: 1  ID: 0

  5. 读取模式      : 可靠Secure
  6. 使用精确流     : 是
  7. 清空音频缓存    : 是
  8. 使用 C2 指示器 : 否

  9. 组合读写偏移校正:             : 0
  10. 读取 Lead-In 和 Lead-Out : 否
  11. 用静音填充抓取中丢失偏移的采样       : 是
  12. 去除首尾静音块               : 否
  13. 在CRC 计算中使用了空样本       : 是
  14. 已用接口                  : Win NT 及 2000 本地 Win32 接口

  15. 所用输出模式: : 内部 WAV 函数
  16. 样本格式    : 44.100 Hz; 16 Bit; 立体声


  17. 已抓取 CD 的 TOC

  18.      音轨 |    起始    |    长度    |  起始扇区  |  结束扇区  
  19.     --------------------------------------------
  20.       1 |  0:00.00 |  3:57.56 |      0 |  17830
  21.       2 |  3:57.56 |  3:50.25 |  17831 |  35105
  22.       3 |  7:48.06 |  1:58.66 |  35106 |  44021
  23.       4 |  9:46.72 |  7:37.72 |  44022 |  78368
  24.       5 | 17:24.69 |  4:43.48 |  78369 |  99641
  25.       6 | 22:08.42 |  3:04.21 |  99642 | 113462
  26.       7 | 25:12.63 |  4:06.32 | 113463 | 131944
  27.       8 | 29:19.20 |  3:22.10 | 131945 | 147104
  28.       9 | 32:41.30 |  3:33.28 | 147105 | 163107
  29.      10 | 36:14.58 |  2:12.03 | 163108 | 173010
  30.      11 | 38:26.61 |  3:27.67 | 173011 | 188602
  31.      12 | 41:54.53 |  4:31.06 | 188603 | 208933
  32.      13 | 46:25.59 |  3:49.72 | 208934 | 226180
  33.      14 | 50:15.56 |  4:05.19 | 226181 | 244574
  34.      15 | 54:21.00 |  3:51.71 | 244575 | 261970
  35.      16 | 58:12.71 |  4:09.31 | 261971 | 280676


  36. 范围状态及错误

  37. 已选择范围

  38.      文件名 G:\Share\青涩雨林\未知艺术家 - 未知标题.wav

  39.      峰值电平 99.8 %
  40.      抓取速度 4.8 X
  41.      范围质量 100.0 %
  42.      复制 CRC DA9F62B1
  43.      复制成功

  44. 没有错误发生

  45. 状态报告结尾

  46. ---- CUETools DB Plugin V2.1.6

  47. [CTDB TOCID: NdKvJZ79aWbBcPm_5wtSeHayMfg-] disk not present in database
  48. Submit result: NdKvJZ79aWbBcPm_5wtSeHayMfg- has been uploaded
复制代码
发表于 2019-5-13 09:44:08 | 显示全部楼层
这是精品,谢谢分享!!
发表于 2019-5-13 09:49:12 | 显示全部楼层
感谢!!!!
发表于 2019-5-13 09:52:07 | 显示全部楼层
这是精品,谢谢分享!!
发表于 2019-5-13 09:52:08 | 显示全部楼层
楼主辛苦了!
发表于 2019-5-13 09:52:17 | 显示全部楼层
谢谢,分享!
发表于 2019-5-13 09:53:11 | 显示全部楼层
谢谢分享谢谢
发表于 2019-5-13 10:44:27 | 显示全部楼层
感谢分享!!
发表于 2019-5-13 10:56:23 | 显示全部楼层
楼主威武!!!
您需要登录后才可以回帖 登录 | 快速注册

本版积分规则

发布主题 快速回复 返回列表 联系我们

关于我们|手机版| 烧客网|苏ICP备17021493-1号|閸溿劏顕楃广垺婀囩拠椋庡仯閸? title=

Powered by Discuz! X3.4 © 2001-2017 Comsenz Inc.

声明:本站资源来自网盘分享,仅供试听,勿作商用,请支持正版!

如果您认为本站相关页面侵权,请Email:[email protected]

快速回复 返回顶部 返回列表