烧客音乐论坛-发烧直到底,来者都是客!

 找回密码
 快速注册

QQ登录

只需一步,快速开始

查看: 290|回复: 58

[WAV音轨] 【群星 天使之音合唱之翼】MF音乐传真 天堂原音 聆听最强圣品[WAV+CUE/双通]

[复制链接]
发表于 2019-5-13 19:53:28 | 显示全部楼层 |阅读模式

马上注册,结交更多烧友,大家一起分享交流,快心快哉。

您需要 登录 才可以下载或查看,没有帐号?快速注册

x
mf唱片 天使之音-cover_副本.jpg

MF唱片 天使之音-CD_副本.jpg

MF唱片 天使之音-BACK_副本.jpg

专辑名称:天使之音合唱之翼
专辑艺人:群星
发行公司:MF音乐传真唱片公司
唱片风格:发烧童声精华集
出版公司:中国长城艺术文化中心
ISRC:CN-A09-09-378-00/A.J6
发行时间:2009年
资源类型:WAV+CUE


                               
登录/注册后可看大图


专辑简介:

天堂原音MF临听最强圣品
用音乐体会生命,天使发烧合唱团合辑,
當天使在歌唱,全世界静心聆听最劲优美之至高形態。——靓声试音王
MANLEY LAB真空管高科技发烧门高音质处理B&W的Nautilus系统掦声器指定尃业测度CD
18首满溢希望的天使歌声。横跨EMI/Virgin Sony/BMG环球、华纳、福茂五大厂牌的美丽佳音;
集合法国圣马可童声合唱团、峰顶教堂合唱团、艾瑞克魏斯伯格合唱团
泰比教堂室内合唱团、天使之翼合唱团等,
天籁美声,雅俗共赏!


                               
登录/注册后可看大图


专辑曲目:

01 WALKING IN THE AIR 云中漫步
02 WHEN A CHILD IS BORN 圣婴降临
03 GOD REST YOU MERRY GENTLEMEN 上帝让你快乐,先生们
04 UOIS SUR TON CHEMIN 眺望你的路途
05 JOY TO THE WORLD 普世欢腾
06 IN MEMORIRM A CAPPELLA 为纪念清唱
07 DANNY BOY 丹尼男孩
08 UOCA ME 呼唤我
09 ACROSS THE BRIOGE OF HOPE 穿过桥的希望
10 DEY KIMER NA TIL JULEFEST 翁博格
11 DET KIMER NA TIL JULEFES T挪威民谣
12 LES CHORISTES 放牛班的春天
13 AN SIMON MOINE 小修士
14 EG SYNGER JULEKUAD 我也不知道
15 MITT HJERTE ALLTID UANKER 我的心总是在远行
16 AUE MARIA 圣母玛丽亚
17 MITT HJERTE ALLEID UANKER 歌颂大地
18 UNE UOIX 一个声音


分享链接死链反馈

友情提醒

游客,如果您要查看本帖隐藏内容请 用心回复,勿要灌水、违规,如果您想免回复、免元宝下载请加入贵宾
 楼主| 发表于 2019-5-13 19:53:36 | 显示全部楼层
  1. Exact Audio Copy V1.0 beta 3 from 29. August 2011

  2. EAC 抓取日志文件从31. 一月 2018, 10:07

  3. 童声天使发烧合唱团 / 天使之音

  4. 使用驱动器  :PIONEER DVD-RW  DVR-219L   Adapter: 2  ID: 0

  5. 读取模式      : 可靠Secure
  6. 使用精确流     : 是
  7. 清空音频缓存    : 否
  8. 使用 C2 指示器 : 否

  9. 组合读写偏移校正:             : 6
  10. 读取 Lead-In 和 Lead-Out : 否
  11. 用静音填充抓取中丢失偏移的采样       : 是
  12. 去除首尾静音块               : 否
  13. 在CRC 计算中使用了空样本       : 是
  14. 已用接口                  : Win NT 及 2000 本地 Win32 接口

  15. 所用输出模式: : 内部 WAV 函数
  16. 样本格式    : 44.100 Hz; 16 Bit; 立体声


  17. 已抓取 CD 的 TOC

  18.      音轨 |    起始    |    长度    |  起始扇区  |  结束扇区  
  19.     --------------------------------------------
  20.       1 |  0:00.00 |  4:04.39 |      0 |  18338
  21.       2 |  4:04.39 |  2:22.60 |  18339 |  29048
  22.       3 |  6:27.24 |  2:38.62 |  29049 |  40960
  23.       4 |  9:06.11 |  2:21.58 |  40961 |  51593
  24.       5 | 11:27.69 |  7:10.17 |  51594 |  83860
  25.       6 | 18:38.11 |  3:21.18 |  83861 |  98953
  26.       7 | 21:59.29 |  3:31.59 |  98954 | 114837
  27.       8 | 25:31.13 |  4:51.20 | 114838 | 136682
  28.       9 | 30:22.33 |  4:42.39 | 136683 | 157871
  29.      10 | 35:04.72 |  0:59.43 | 157872 | 162339
  30.      11 | 36:04.40 |  3:32.37 | 162340 | 178276
  31.      12 | 39:37.02 |  1:34.22 | 178277 | 185348
  32.      13 | 41:11.24 |  2:22.05 | 185349 | 196003
  33.      14 | 43:33.29 |  4:31.23 | 196004 | 216351
  34.      15 | 48:04.52 |  4:36.28 | 216352 | 237079
  35.      16 | 52:41.05 |  3:00.07 | 237080 | 250586
  36.      17 | 55:41.12 |  3:58.16 | 250587 | 268452
  37.      18 | 59:39.28 |  2:56.39 | 268453 | 281691


  38. 范围状态及错误

  39. 已选择范围

  40.      文件名 F:\烧客音乐论坛原抓上传区\童声天使发烧合唱团 天使之音\CDImage.wav

  41.      峰值电平 100.0 %
  42.      抓取速度 3.0 X
  43.      范围质量 99.9 %
  44.      复制 CRC 496CE1C5
  45.      复制成功

  46. 没有错误发生

  47. 状态报告结尾
复制代码
发表于 2019-5-13 19:56:06 | 显示全部楼层
谢谢,分享!
发表于 2019-5-13 20:09:55 | 显示全部楼层
谢谢分享!!
回复

使用道具 举报

发表于 2019-5-13 20:09:55 | 显示全部楼层
感谢!!!!
发表于 2019-5-13 20:12:18 | 显示全部楼层
感谢分享!!!!
发表于 2019-5-13 20:14:47 | 显示全部楼层
在此谢过!
发表于 2019-5-13 20:17:21 | 显示全部楼层
非常感谢!
发表于 2019-5-13 20:23:47 | 显示全部楼层
谢谢分享!!
回复

使用道具 举报

发表于 2019-5-13 20:53:45 | 显示全部楼层
感谢分享!!
您需要登录后才可以回帖 登录 | 快速注册

本版积分规则

发布主题 快速回复 返回列表 联系我们

关于我们|手机版| 烧客网|苏ICP备17021493-1号|閸溿劏顕楃广垺婀囩拠椋庡仯閸? title=

Powered by Discuz! X3.4 © 2001-2017 Comsenz Inc.

声明:本站资源来自网盘分享,仅供试听,勿作商用,请支持正版!

如果您认为本站相关页面侵权,请Email:[email protected]

快速回复 返回顶部 返回列表