烧客HIFI论坛-发烧直到底,来者都是客!

 找回密码
 快速注册

QQ登录

只需一步,快速开始

查看: 2157|回复: 248

[WAV整轨] 【蔡琴 遇见老歌[6N纯银镀膜]】ABC唱片 征服听者心窝的魅力[WAV+CUE/双通]

  [复制链接]
发表于 2019-5-29 11:40:48 | 显示全部楼层 |阅读模式

马上注册,结交更多烧友,大家一起分享交流,快心快哉。

您需要 登录 才可以下载或查看,没有帐号?快速注册

x
蔡琴 遇见老歌[6n纯银镀膜]-cover_副本.jpg

专辑名称:遇见老歌
专辑版本:6N纯银镀膜
专辑艺人:蔡琴
制作发行:ABC国际唱片
唱片风格:怀旧、发烧人声
专辑编号:HDS-267
发行时间:2018年10月
资源类型:WAV+CUE

蔡琴 遇见老歌[6N纯银镀膜]-BACK_副本.jpg


专辑简介:

重新演译老歌,真的无人可以捥拒那份征服聆听者心窝的魅力,她的歌声不断散发著醇霤的气味,不会刻意地煽情卖弄演唱技巧,从歌声中流露出的人生经历和写照。从那天赋磁性中音,我们可不费力的得知和体会出她唱歌生涯之萃錬和验。


6N纯银镀膜压片LimitedEdition99.9999%Silver特点:
1.使用高格式HighDefrinitionMasteringCD来制做母盘。
2.现场模拟录音,1:1的直刻母带技术。
3.6N纯银镀模生产CD,全过程德国制造。
4.100kHz/24bit的信号处理,解析力高,音域宽广,令音色及质量有非常大的提高,使器材能精确的读取该数据及回放出近乎原音的音效。


蔡琴 遇见老歌[6N纯银镀膜]-CD_副本.jpg


专辑曲目:


01        Another Day               03:31
        天天天天                                       作詞:王懿行 作曲:吳楚楚  
02        Evening Primrose                                                                 04:14
        夜来香                                           作詞:金玉谷 作曲:金玉穀  
03        The Moonlight Pours on the West Temple                        03:25
        月满西楼                                       作詞:瓊瑤 作曲:劉家昌
04        Girls Group                 03:45
        女儿圈                                          作詞:陳蝶衣 作曲:姚敏
05        Bond of Love                                                                         03:56
        情锁                                              作詞:莊奴 作曲:林庭筠  
06        Everlasting Smile                                                                  04:22
        永远的微笑                                   作詞:陳哥辛 作曲:陳歌辛  
07        Dancing Dress                                                                       03:26
        舞衣                                              作詞:依達 作曲:王福齡  
08        Reading You                                                                          04:05
        读你                                              作詞:梁弘志 作曲:梁弘志
09        Brassica Napus                                                                      03:42
        油麻菜籽                                       作詞:李宗盛 作曲:李宗盛  
10        Life is Like the Drama                                                            03:08
        人生就是戏                                   作詞:狄薏 作曲:姚敏  
11        Riverside of the Lovesick                                                       03:15
        相思河畔                                       作詞:紀雲程 作曲:暹羅民謠  
12        Haze in the Sunset                                                                03:35
        烟雨斜阳                                       作詞:莊奴 作曲:劉家昌  
13        Heartbreak Station                                                                04:52
        伤心小站                                       作詞:陳桂珠 作曲:曹俊鴻
14        Heart Loving                                                                           03:35
        心恋                                               作詞:方忭 作曲:梁齡選  
15        Evening Bell at Nanping Hill                                                 04:37
        南屏晚钟                                        作詞:方達 作曲:王福齡
16        Spring Breeze Kiss My Face                                                   03:21
        春风吻上我的脸                             作詞:狄薏 作曲:姚敏
17        Rather Be Lonely                                                                    03:51
        情愿孤独                                        作詞:鄧福山 作曲:鄧福山  


分享链接死链反馈

友情提醒

游客,如果您要查看本帖隐藏内容请 用心回复,勿要灌水、违规,如果您想免回复、免元宝下载请加入贵宾


 楼主| 发表于 2019-5-29 11:40:51 | 显示全部楼层
  1. Exact Audio Copy V1.3 from 2. September 2016

  2. EAC 抓取日志文件从31. 十二月 2018, 15:29

  3. 蔡琴 / 遇见老歌

  4. 使用驱动器  :BENQ    DVD DC DW20AS   Adapter: 1  ID: 0

  5. 读取模式      : 可靠Secure
  6. 使用精确流     : 是
  7. 清空音频缓存    : 是
  8. 使用 C2 指示器 : 否

  9. 读取偏移校正:               : 6
  10. 读取 Lead-In 和 Lead-Out : 否
  11. 用静音填充抓取中丢失偏移的采样       : 是
  12. 去除首尾静音块               : 否
  13. 在CRC 计算中使用了空样本       : 是
  14. 已用接口                  : Win NT 及 2000 本地 Win32 接口

  15. 所用输出模式: : 内部 WAV 函数
  16. 样本格式    : 44.100 Hz; 16 Bit; 立体声


  17. 已抓取 CD 的 TOC

  18.      音轨 |    起始    |    长度    |  起始扇区  |  结束扇区  
  19.     --------------------------------------------
  20.       1 |  0:00.00 |  3:27.00 |      0 |  15524
  21.       2 |  3:27.00 |  3:18.00 |  15525 |  30374
  22.       3 |  6:45.00 |  3:29.00 |  30375 |  46049
  23.       4 | 10:14.00 |  3:41.00 |  46050 |  62624
  24.       5 | 13:55.00 |  3:56.00 |  62625 |  80324
  25.       6 | 17:51.00 |  3:16.00 |  80325 |  95024
  26.       7 | 21:07.00 |  3:27.00 |  95025 | 110549
  27.       8 | 24:34.00 |  4:06.00 | 110550 | 128999
  28.       9 | 28:40.00 |  3:43.00 | 129000 | 145724
  29.      10 | 32:23.00 |  3:09.00 | 145725 | 159899
  30.      11 | 35:32.00 |  3:15.00 | 159900 | 174524
  31.      12 | 38:47.00 |  3:35.00 | 174525 | 190649
  32.      13 | 42:22.00 |  4:51.00 | 190650 | 212474
  33.      14 | 47:13.00 |  3:33.00 | 212475 | 228449
  34.      15 | 50:46.00 |  3:23.00 | 228450 | 243674
  35.      16 | 54:09.00 |  3:20.00 | 243675 | 258674
  36.      17 | 57:29.00 |  3:51.00 | 258675 | 275999


  37. 范围状态及错误

  38. 已选择范围

  39.      文件名 F:\蔡琴 - 遇见老歌.wav

  40.      峰值电平 100.0 %
  41.      抓取速度 4.3 X
  42.      范围质量 100.0 %
  43.      复制 CRC 6756F9E3
  44.      复制成功

  45. 没有错误发生

  46. 状态报告结尾
复制代码
发表于 2019-5-29 11:42:06 | 显示全部楼层
感谢分享!!
发表于 2019-5-29 11:51:33 | 显示全部楼层
谢谢分享!
发表于 2019-5-29 12:00:36 | 显示全部楼层
在此谢过!
发表于 2019-5-29 12:13:53 | 显示全部楼层
好听好听,谢谢分享
发表于 2019-5-29 12:31:17 | 显示全部楼层
感谢楼主分享好东西
发表于 2019-5-29 13:01:17 | 显示全部楼层

感谢分享!!
回复

使用道具 举报

发表于 2019-5-29 14:28:37 | 显示全部楼层
谢谢,分享!
发表于 2019-5-29 14:39:11 | 显示全部楼层
谢谢楼主分享
您需要登录后才可以回帖 登录 | 快速注册

本版积分规则