烧客HIFI论坛-发烧直到底,来者都是客!

 找回密码
 快速注册

QQ登录

只需一步,快速开始

查看: 152|回复: 35

[WAV音轨] 【Best Audiophile Voices Ⅶ/爵士红伶7】德国Premium出品 性感爵士[WAV+CUE/双通]

[复制链接]
发表于 2019-8-15 20:15:56 | 显示全部楼层 |阅读模式

马上注册,结交更多烧友,大家一起分享交流,快心快哉。

您需要 登录 才可以下载或查看,没有帐号?快速注册

x
本帖最后由 砖家 于 2019-8-15 20:24 编辑

cover_副本.jpg


专辑名称:爵士红伶Ⅶ
专辑艺人:群星
发行公司:Premium
唱片风格:爵士人声
发行时间:2011年06月
资源类型:WAV+CUE+LOG



专辑简介:

二十一世纪最佳发烧鉴听版,年度最震撼发烧音响界,发烧碟名厂烧录制作,全新浪漫巨献,高解析度录音,重量级发行。万众期待的衆星云集,极致发烧级的制作,百分百爵士女声完美典籍。


专辑曲目:
01. The Look Of Love - Saskia Bruin 爱的容颜
02. Vincent - Sarah Morrau 文森特
03. Time Of Time - Jeni Fleming Acoutic Trio 时间的时间
04. Your Songs - Emi Fujita 给你的歌
05. A Whiter Shade Of Pale - Halie Loren Feat. Matt 苍白的浅影
06. True Colors - Eva Cassidy 本色
07. What The World Needs Now - Woong Sam 童真
08. Hungry Heart - Jeanne Newhall 饥饿的心
09. My Romance - Dina Blade 我的罗曼史
10. Have I Told You Lately - Ela Lo 最近我有没有跟你说
11. For The First Time - Jheena Lodwick 第一次
12. I've Never Been To Me - Noon 未曾有自我
13. Je T'Aime - Kelly Sweet 我爱你
14. Breaking Up Is Hard To Do - Emilie-Claire Barlow  难分难舍

分享链接死链反馈

友情提醒

游客,如果您要查看本帖隐藏内容请 用心回复,勿要灌水、违规,如果您想免回复、免元宝下载请加入贵宾

专辑关联:


 楼主| 发表于 2019-8-15 20:15:57 | 显示全部楼层
  1. Exact Audio Copy V0.99 prebeta 5 from 4. May 2009

  2. EAC 抓取日志文件从5. 八月 2011, 0:12

  3. 群星 / 爵士红伶Ⅶ

  4. 使用驱动器  :PIONEER DVD-RW  DVR-218L   Adapter: 2  ID: 1

  5. 读取模式     : 保护
  6. 使用精确流   : 是
  7. 废除音频缓冲 : 是
  8. 使用 C2 指针 : 否

  9. 读取偏移校正                   : 0
  10. 读取 Lead-In 和 Lead-Out       : 否
  11. 用静音填充抓取中丢失偏移的采样 : 是
  12. 去除首尾静音块                 : 否
  13. 在 CRC 计算中使用了空样本      : 是
  14. 已用接口                       : Win NT 及 2000 本地 Win32 接口

  15. 所用输出格式 : 内部 WAV 函数
  16. 样本格式     : 44.100 Hz;16 Bit;立体声


  17. 被抓轨 CD 的 TOC

  18.      音轨 |   开始   |   长度   | 起始扇区 | 结尾扇区
  19.     --------------------------------------------------
  20.        1  |  0:00.00 |  3:57.67 |       0  |   17841  
  21.        2  |  3:57.67 |  5:59.71 |   17842  |   44837  
  22.        3  |  9:57.63 |  5:00.69 |   44838  |   67406  
  23.        4  | 14:58.57 |  4:37.48 |   67407  |   88229  
  24.        5  | 19:36.30 |  4:44.17 |   88230  |  109546  
  25.        6  | 24:20.47 |  3:47.52 |  109547  |  126623  
  26.        7  | 28:08.24 |  4:39.14 |  126624  |  147562  
  27.        8  | 32:47.38 |  4:08.16 |  147563  |  166178  
  28.        9  | 36:55.54 |  3:54.72 |  166179  |  183800  
  29.       10  | 40:50.51 |  4:08.48 |  183801  |  202448  
  30.       11  | 44:59.24 |  4:40.27 |  202449  |  223475  
  31.       12  | 49:39.51 |  4:04.47 |  223476  |  241822  
  32.       13  | 53:44.23 |  2:43.61 |  241823  |  254108  
  33.       14  | 56:28.09 |  5:13.16 |  254109  |  277599  


  34. 范围状态及错误

  35. 已选择范围

  36.      文件名 D:\烧客HIFI论坛\爵士红伶Ⅶ[WAV+CUE]\群星 - 爵士红伶Ⅶ.wav

  37.      峰值电平 99.9 %
  38.      范围质量 100.0 %
  39.      复制 CRC DC66B4D6
  40.      复制成功

  41. 没有错误发生

  42. 状态报告结尾
复制代码
发表于 2019-8-15 20:21:07 | 显示全部楼层
谢谢分享!!!
发表于 2019-8-15 20:21:16 | 显示全部楼层
感谢分享
发表于 2019-8-15 21:00:33 | 显示全部楼层
谢谢,分享!
发表于 2019-8-15 21:53:43 | 显示全部楼层
感谢分享
发表于 2019-8-15 22:57:05 | 显示全部楼层
好听啊!下载收藏先
发表于 2019-8-16 05:07:27 | 显示全部楼层
下载收藏,谢谢分享!!!
发表于 2019-8-16 07:43:53 | 显示全部楼层
谢谢分享爵士红伶Ⅶ
发表于 2019-8-16 07:53:16 | 显示全部楼层
非常感谢!
您需要登录后才可以回帖 登录 | 快速注册

本版积分规则