烧客HIFI论坛-发烧直到底,来者都是客!

 找回密码
 快速注册

QQ登录

只需一步,快速开始

查看: 240|回复: 47

[WAV整轨] 【陈曦 遇见 HQCD】红音堂唱片 中国的“小野丽莎”典范录音[WAV+CUE/双通]

[复制链接]
发表于 2019-10-8 11:15:26 | 显示全部楼层 |阅读模式

马上注册,结交更多烧友,大家一起分享交流,快心快哉。

您需要 登录 才可以下载或查看,没有帐号?快速注册

x
cover_副本.jpg

专辑名称:遇见
专辑版本:HQCD
专辑艺人:陈曦
发行公司:红音堂(国际)唱片
唱片风格:发烧人声
出版公司:广州市新时代新影公司
ISRC编码:CN-F21-10-344-00/A.J6
发行时间:2011年09月
资源类型:WAV+CUE+LOG


                               
登录/注册后可看大图


专辑简介:

被誉为东方“罗拉.钟斯”、中国的“小野丽莎”
歌手陈曦倾力演唱重新收录华语乐坛天王、天后顶级作品的英文版本
12首真挚代表作品 典范级HIFI录音
令人感动的12首歌曲一次奉上



专辑曲目:

01.Be My Side (遇见-孙燕姿)
02.Only Love (爱下去[当我想起你]-张学友)
03.Colors Of The Wind (风之彩-辛晓琪)
04.Soledad (紫藤花-S.H.E)
05.Going Home (乘客-王菲)
06.Gardenia Blossom (橘子花开-何炅)
07.I Love You (爱很简单-陶喆)
08.She's Gone (解脱-张惠妹)
09.2004 (两个人的烟火-黎明)
10.Moonlight Flower (寂寞在唱歌-阿桑)
11.Because I Love You (因我爱你-杜德伟/林志美)
12.Never Had A Dream Come True (一直在找一个人-冯玮君)

分享链接死链反馈

友情提醒

游客,如果您要查看本帖隐藏内容请 用心回复,勿要灌水、违规,如果您想免回复、免元宝下载请加入贵宾

 楼主| 发表于 2019-10-8 11:16:39 | 显示全部楼层
  1. Exact Audio Copy V0.99 prebeta 5 from 4. May 2009

  2. EAC 抓取日志文件从29. 九月 2011, 20:32

  3. 未知艺术家 / 未知标题

  4. 使用驱动器  :MATSHITAUJDA765aDVD/CDRW   Adapter: 0  ID: 0

  5. 读取模式     : 保护
  6. 使用精确流   : 是
  7. 废除音频缓冲 : 是
  8. 使用 C2 指针 : 否

  9. 读取偏移校正                   : 102
  10. 读取 Lead-In 和 Lead-Out       : 否
  11. 用静音填充抓取中丢失偏移的采样 : 是
  12. 去除首尾静音块                 : 否
  13. 在 CRC 计算中使用了空样本      : 否
  14. 已用接口                       : Win NT 及 2000 本地 Win32 接口

  15. 所用输出格式 : 内部 WAV 函数
  16. 样本格式     : 44.100 Hz;16 Bit;立体声


  17. 被抓轨 CD 的 TOC

  18.      音轨 |   开始   |   长度   | 起始扇区 | 结尾扇区
  19.     --------------------------------------------------
  20.        1  |  0:00.00 |  4:01.15 |       0  |   18089  
  21.        2  |  4:01.15 |  4:12.69 |   18090  |   37058  
  22.        3  |  8:14.09 |  4:01.07 |   37059  |   55140  
  23.        4  | 12:15.16 |  4:32.20 |   55141  |   75560  
  24.        5  | 16:47.36 |  4:18.25 |   75561  |   94935  
  25.        6  | 21:05.61 |  3:50.47 |   94936  |  112232  
  26.        7  | 24:56.33 |  4:35.07 |  112233  |  132864  
  27.        8  | 29:31.40 |  5:57.43 |  132865  |  159682  
  28.        9  | 35:29.08 |  4:26.70 |  159683  |  179702  
  29.       10  | 39:56.03 |  4:10.42 |  179703  |  198494  
  30.       11  | 44:06.45 |  5:10.25 |  198495  |  221769  
  31.       12  | 49:16.70 |  4:08.15 |  221770  |  240384  


  32. 范围状态及错误

  33. 已选择范围

  34.      文件名 D:\烧客HIFI论坛\陈曦-遇见[WAV+CUE]\陈曦-遇见.wav

  35.      峰值电平 98.8 %
  36.      范围质量 100.0 %
  37.      复制 CRC 0FA08CED
  38.      复制成功

  39. 没有错误发生


  40. AccurateRip 概要

  41. 音轨  1  数据库中未见
  42. 音轨  2  数据库中未见
  43. 音轨  3  数据库中未见
  44. 音轨  4  数据库中未见
  45. 音轨  5  数据库中未见
  46. 音轨  6  数据库中未见
  47. 音轨  7  数据库中未见
  48. 音轨  8  数据库中未见
  49. 音轨  9  数据库中未见
  50. 音轨 10  数据库中未见
  51. 音轨 11  数据库中未见
  52. 音轨 12  数据库中未见

  53. 没有任何音轨出现在 AccurateRip 数据库中

  54. 状态报告结尾
复制代码
回复 支持 反对

使用道具 举报

发表于 2019-10-8 11:19:54 | 显示全部楼层
楼主威武!!!
回复 支持 反对

使用道具 举报

发表于 2019-10-8 11:31:45 | 显示全部楼层
感谢楼主分享好碟
回复 支持 反对

使用道具 举报

发表于 2019-10-8 11:31:45 | 显示全部楼层
谢谢分享!
回复 支持 反对

使用道具 举报

发表于 2019-10-8 11:46:12 | 显示全部楼层
非常感谢!
回复 支持 反对

使用道具 举报

发表于 2019-10-8 11:47:34 | 显示全部楼层

感谢楼主分享好碟!
回复 支持 反对

使用道具 举报

发表于 2019-10-8 11:52:52 | 显示全部楼层
感谢楼主分享陈曦遇见
回复 支持 反对

使用道具 举报

发表于 2019-10-8 12:03:16 | 显示全部楼层
感谢分享!!
回复 支持 反对

使用道具 举报

发表于 2019-10-8 15:58:10 | 显示全部楼层

感谢分享!!
回复

使用道具 举报

您需要登录后才可以回帖 登录 | 快速注册

本版积分规则