烧客HIFI论坛-发烧直到底,来者都是客!

 找回密码
 快速注册

QQ登录

只需一步,快速开始

查看: 438|回复: 82

[WAV整轨] 【张可儿 纯音 HQCD】兰楚森文化 正版原抓[WAV+CUE/BD]

  [复制链接]
发表于 2019-11-1 00:17:56 | 显示全部楼层 |阅读模式

马上注册,结交更多烧友,大家一起分享交流,快心快哉。

您需要 登录 才可以下载或查看,没有帐号?快速注册

x
封面_看图王.jpg

封底_看图王.jpg

专辑名称:《纯音 HQCD》WAV+CUE
专辑艺人:张可儿
出版公司:中国数字文化集团有限公司
发行公司:北京兰楚森文化传播有限公司
总经销:北京兰楚森文化传播有限公司
发行时间:2019年10月
资源格式:正版原抓WAV+CUE

   专辑简介:
张可儿,第五张专辑,韵味十足,抚慰心灵的天籁女声。
张可儿,英文名:Nicole,兰楚森音乐签约艺人。
师从中国音乐学院导师王月明及著名作曲家张又弛学习声乐。
其甜美细腻的独特嗓音,在2011年推出个人首支单曲《原上情》,
其另类的演唱方式,演绎别具韵味草原风。
2012年4月,推出单曲《我是你的可乐》慢摇曲风、丰富的和声、
多样化的电子音乐以及融合了外国音乐元素,
使歌曲展现了一种前卫时尚的音乐形式。
2012年10月,推出单曲《江南style中文裸爱》。
2013年4月,发行首张个人专辑《裸爱》,主打歌曲《裸爱》《真心换真情》;
2013年12月,发行个人第二张专辑《爱你一百岁》,
主打歌曲《爱你一百岁》、《微信惹的祸》。

她是清耳、悦心、歌唱着的音乐仙子,
如秋雨般在果实最丰硕的季节潇下!
她的歌,淡淡的、轻轻的,如同冬天破冰的溪水,不骄不躁却充满了力量,
那如溪水的声音没有过多的修饰,你却在不知不觉间被这样的声音打动。
她的声音有一种安抚人心的劝慰力量,音乐一经推出,
受到广大网友喜爱。她就是内地新生代华语魅力甜歌手——张可儿。

华语新生代魅力甜嗓歌手,她的歌声如同
冬天破冰的溪水一样不骄不躁却充满激情,
她的声音没有过多的修饰,却能不知不觉中打动人,
给人以一种安抚心灵的劝慰力量。

      专辑曲目:
01、远的你是我最近的爱

02、传奇
03、知否知否
04、女人花

05、一百万个可能
06、落花泪
07、你若安好

08、假如爱有天意
09、我心依旧
10、小小的太阳
11、想你

12、情殇
13、大望路
分享链接死链反馈

友情提醒
游客,如果您要查看本帖隐藏内容请 用心回复,勿要灌水、违规,如果您想免回复、免元宝下载请加入贵宾
 楼主| 发表于 2019-11-1 00:29:41 | 显示全部楼层

                               
登录/注册后可看大图
回复 支持 反对

使用道具 举报

 楼主| 发表于 2019-11-1 00:40:47 | 显示全部楼层

  1. Exact Audio Copy V1.0 beta 3 from 29. August 2011

  2. EAC 抓取日志文件从29. 十月 2019, 10:22

  3. 张可儿 / 纯音 HQCD

  4. 使用驱动器  :HL-DT-STDVDROM DH18NS40   Adapter: 0  ID: 0

  5. 读取模式      : 可靠Secure
  6. 使用精确流     : 是
  7. 清空音频缓存    : 是
  8. 使用 C2 指示器 : 否

  9. 读取偏移校正:               : 0
  10. 读取 Lead-In 和 Lead-Out : 否
  11. 用静音填充抓取中丢失偏移的采样       : 是
  12. 去除首尾静音块               : 否
  13. 在CRC 计算中使用了空样本       : 是
  14. 已用接口                  : Win NT 及 2000 本地 Win32 接口

  15. 所用输出模式: : 内部 WAV 函数
  16. 样本格式    : 44.100 Hz; 16 Bit; 立体声


  17. 已抓取 CD 的 TOC

  18.      音轨 |    起始    |    长度    |  起始扇区  |  结束扇区  
  19.     --------------------------------------------
  20.       1 |  0:00.00 |  4:37.22 |      0 |  20796
  21.       2 |  4:37.22 |  5:15.51 |  20797 |  44472
  22.       3 |  9:52.73 |  4:47.25 |  44473 |  66022
  23.       4 | 14:40.23 |  4:42.68 |  66023 |  87240
  24.       5 | 19:23.16 |  4:20.12 |  87241 | 106752
  25.       6 | 23:43.28 |  4:04.63 | 106753 | 125115
  26.       7 | 27:48.16 |  3:36.12 | 125116 | 141327
  27.       8 | 31:24.28 |  4:30.05 | 141328 | 161582
  28.       9 | 35:54.33 |  3:25.29 | 161583 | 176986
  29.      10 | 39:19.62 |  5:22.44 | 176987 | 201180
  30.      11 | 44:42.31 |  3:24.69 | 201181 | 216549
  31.      12 | 48:07.25 |  3:58.06 | 216550 | 234405
  32.      13 | 52:05.31 |  4:56.64 | 234406 | 256669


  33. 范围状态及错误

  34. 已选择范围

  35.      文件名 C:\Users\windows\Desktop\张可儿 - 纯音 HQCD.wav

  36.      峰值电平 100.0 %
  37.      抓取速度 2.0 X
  38.      范围质量 99.9 %
  39.      复制 CRC 1F71B495
  40.      复制成功

  41. 没有错误发生

  42. 状态报告结尾
复制代码

回复 支持 反对

使用道具 举报

发表于 2019-11-1 03:04:33 | 显示全部楼层
谢谢分享!!!
回复 支持 反对

使用道具 举报

发表于 2019-11-1 03:43:22 | 显示全部楼层
谢谢楼主分享
回复 支持 反对

使用道具 举报

发表于 2019-11-1 03:45:09 | 显示全部楼层
谢谢分享!!!
回复

使用道具 举报

发表于 2019-11-1 03:45:09 | 显示全部楼层
谢谢,分享!
回复 支持 反对

使用道具 举报

发表于 2019-11-1 06:02:19 | 显示全部楼层
谢谢楼主分享
回复 支持 反对

使用道具 举报

发表于 2019-11-1 06:57:14 | 显示全部楼层
谢谢分享
回复

使用道具 举报

发表于 2019-11-1 06:57:14 | 显示全部楼层
感谢分享!!
回复 支持 反对

使用道具 举报

您需要登录后才可以回帖 登录 | 快速注册

本版积分规则