烧客HIFI论坛-发烧直到底,来者都是客!

 找回密码
 快速注册

QQ登录

只需一步,快速开始

查看: 25545|回复: 346

[WAV音轨] 【唐朝同名专辑】滚石唱片 中国摇滚史里程牌乐队 最佳ROCK专辑[WAV+CUE/双通]

  [复制链接]
发表于 2018-4-28 10:20:11 | 显示全部楼层 |阅读模式

马上注册,结交更多烧友,大家一起分享交流,快心快哉。

您需要 登录 才可以下载或查看,没有帐号?快速注册

x
专辑名称:同名专辑
歌手姓名:唐朝
专辑版本:滚石K1首发版
唱片公司:滚石唱片
专辑出版:魔岩文化
唱片风格:重金属、中国式摇滚
唱片监录:颜仲坤
发行时间:1992年11月01日
歌曲语言:华语、国语
资源格式:WAV+CUE

cover_副本.jpg

专辑介绍:

中国摇滚史最佳专辑,
唐朝乐队是中国摇滚乐史上里程碑式的乐队。
唐朝乐队初具影响是在1989年末的北京首体“90现代音乐会”上,
这场相当于“中国Woodstock”的摇滚盛会聚集了国内多支乐队。
唐朝乐队以他们狂飙的歌声和飘逸的长发成了他们的标志。

back_副本.jpg

1990年5月,乐队签约于台湾“滚石唱片”,
并于1991年推出首张专辑《唐朝》,这张专辑连同当时黑豹的首张专辑共同打造了中国摇滚的黄金年代
在这张堪称为中国摇滚乐经典之作的专辑中,收录了《梦回唐朝》、《月梦》、《太阳》、《天堂》等作品,
1994年,香港红堪体育场“中国火”演唱会又再次证明了唐朝乐队在中国摇滚乐坛中不可取代的重要地位。
专辑中,充满诗意和哲理性的歌词也证明了唐朝乐队有着深厚的文学功底和浓重的艺术修养
主唱丁武高亢而富有振颤性的歌声顷刻间吸引了数以万记的摇滚乐迷。

cd_副本.jpg

专辑曲目:

01.梦回唐朝
02.太阳
03.九拍
04.天堂
05.选择
06.飞翔鸟
07.世纪末之梦
08.月梦
09.不要逃避
10.传说
11.国际歌


友情提醒

百度分享链接

游客,如果您要查看本帖隐藏内容请 用心回复,勿要灌水、违规,如果您想免回复、免元宝下载请加入贵宾
 楼主| 发表于 2018-4-28 10:20:24 | 显示全部楼层
  1. Exact Audio Copy V1.0 beta 3 from 29. August 2011

  2. EAC extraction logfile from 20. June 2013, 17:10

  3. 唐朝 / 唐朝樂隊

  4. Used drive  : HL-DT-STRW/DVD MU10N   Adapter: 1  ID: 0

  5. Read mode               : Secure
  6. Utilize accurate stream : Yes
  7. Defeat audio cache      : Yes
  8. Make use of C2 pointers : No

  9. Read offset correction                      : 102
  10. Overread into Lead-In and Lead-Out          : No
  11. Fill up missing offset samples with silence : Yes
  12. Delete leading and trailing silent blocks   : No
  13. Null samples used in CRC calculations       : Yes
  14. Used interface                              : Installed external ASPI interface

  15. Used output format : Internal WAV Routines
  16. Sample format      : 44.100 Hz; 16 Bit; Stereo


  17. TOC of the extracted CD

  18.      Track |   Start  |  Length  | Start sector | End sector
  19.     ---------------------------------------------------------
  20.         1  |  0:00.00 |  7:05.02 |         0    |    31876   
  21.         2  |  7:05.02 |  5:54.63 |     31877    |    58489   
  22.         3  | 12:59.65 |  6:37.15 |     58490    |    88279   
  23.         4  | 19:37.05 |  4:22.57 |     88280    |   107986   
  24.         5  | 23:59.62 |  5:48.58 |    107987    |   134144   
  25.         6  | 29:48.45 |  7:05.42 |    134145    |   166061   
  26.         7  | 36:54.12 |  4:57.25 |    166062    |   188361   
  27.         8  | 41:51.37 |  4:49.30 |    188362    |   210066   
  28.         9  | 46:40.67 |  4:33.20 |    210067    |   230561   
  29.        10  | 51:14.12 |  4:44.25 |    230562    |   251886   
  30.        11  | 55:58.37 |  4:26.55 |    251887    |   271891   


  31. Range status and errors

  32. Selected range

  33.      Filename D:\Music\唐朝 - 唐朝樂隊(滾石K1首版)\唐朝 - 唐朝樂隊.wav

  34.      Peak level 100.0 %
  35.      Extraction speed 3.7 X
  36.      Range quality 99.9 %
  37.      Test CRC 3B2B85A6
  38.      Copy CRC 3B2B85A6
  39.      Copy OK

  40. No errors occurred


  41. AccurateRip summary

  42. Track  1  accurately ripped (confidence 2)  [A145DE2E]  (AR v1)
  43. Track  2  accurately ripped (confidence 2)  [5EF2DEC5]  (AR v1)
  44. Track  3  accurately ripped (confidence 2)  [9C2A4708]  (AR v1)
  45. Track  4  accurately ripped (confidence 2)  [DC63EBB2]  (AR v1)
  46. Track  5  accurately ripped (confidence 2)  [9FDF7292]  (AR v1)
  47. Track  6  accurately ripped (confidence 2)  [4E8064F2]  (AR v1)
  48. Track  7  accurately ripped (confidence 2)  [CECF6B82]  (AR v1)
  49. Track  8  accurately ripped (confidence 2)  [B10530E5]  (AR v1)
  50. Track  9  accurately ripped (confidence 2)  [E016A337]  (AR v1)
  51. Track 10  accurately ripped (confidence 2)  [C8C55390]  (AR v1)
  52. Track 11  accurately ripped (confidence 2)  [292117C0]  (AR v1)

  53. All tracks accurately ripped

  54. End of status report
复制代码
发表于 2018-4-28 10:54:50 | 显示全部楼层
很喜欢天堂  太爽了
发表于 2018-4-28 10:59:24 | 显示全部楼层
经典回忆,谢谢分享!
发表于 2018-4-28 11:47:41 | 显示全部楼层
经典回忆,谢谢分享
发表于 2018-4-28 11:56:00 | 显示全部楼层
谢谢分享!
回复

使用道具 举报

发表于 2018-4-28 18:11:09 | 显示全部楼层
感谢分享!!!!
回复

使用道具 举报

发表于 2018-4-29 09:56:13 | 显示全部楼层
经典,难再继续
发表于 2018-4-29 10:32:23 | 显示全部楼层
非常经典,无人超越的重金属。
发表于 2018-4-29 12:01:03 | 显示全部楼层
感谢分享!!!
回复

使用道具 举报

您需要登录后才可以回帖 登录 | 快速注册

本版积分规则